  0
SECTION
  2
HEADER
  9
$ACADVER
  1
AC1012
  9
$DWGCODEPAGE
  3
ansi_1252
  9
$INSBASE
 10
0.0
 20
0.0
 30
0.0
  9
$EXTMIN
 10
-26.371285
 20
0.0
 30
0.0
  9
$EXTMAX
 10
102.425363
 20
87.954432
 30
0.0
  9
$LIMMIN
 10
0.0
 20
0.0
  9
$LIMMAX
 10
95.16
 20
95.16
  9
$ORTHOMODE
 70
     0
  9
$REGENMODE
 70
     1
  9
$FILLMODE
 70
     1
  9
$QTEXTMODE
 70
     0
  9
$MIRRTEXT
 70
     1
  9
$DRAGMODE
 70
     2
  9
$LTSCALE
 40
1.0
  9
$OSMODE
 70
    39
  9
$ATTMODE
 70
     1
  9
$TEXTSIZE
 40
1.5
  9
$TRACEWID
 40
3.0
  9
$TEXTSTYLE
  7
ARCH
  9
$CLAYER
  8
D-TEXT
  9
$CELTYPE
  6
BYLAYER
  9
$CECOLOR
 62
   256
  9
$CELTSCALE
 40
1.0
  9
$DELOBJ
 70
     1
  9
$DISPSILH
 70
     0
  9
$DIMSCALE
 40
12.0
  9
$DIMASZ
 40
0.1875
  9
$DIMEXO
 40
0.0625
  9
$DIMDLI
 40
0.375
  9
$DIMRND
 40
0.0
  9
$DIMDLE
 40
0.0
  9
$DIMEXE
 40
0.1875
  9
$DIMTP
 40
0.0
  9
$DIMTM
 40
0.0
  9
$DIMTXT
 40
0.125
  9
$DIMCEN
 40
0.1875
  9
$DIMTSZ
 40
0.0
  9
$DIMTOL
 70
     0
  9
$DIMLIM
 70
     0
  9
$DIMTIH
 70
     1
  9
$DIMTOH
 70
     1
  9
$DIMSE1
 70
     0
  9
$DIMSE2
 70
     0
  9
$DIMTAD
 70
     0
  9
$DIMZIN
 70
     0
  9
$DIMBLK
  1
OBLIQUE
  9
$DIMASO
 70
     1
  9
$DIMSHO
 70
     1
  9
$DIMPOST
  1

  9
$DIMAPOST
  1

  9
$DIMALT
 70
     0
  9
$DIMALTD
 70
     1
  9
$DIMALTF
 40
25.4
  9
$DIMLFAC
 40
1.0
  9
$DIMTOFL
 70
     0
  9
$DIMTVP
 40
0.0
  9
$DIMTIX
 70
     0
  9
$DIMSOXD
 70
     0
  9
$DIMSAH
 70
     1
  9
$DIMBLK1
  1
_OPEN90
  9
$DIMBLK2
  1
_OPEN90
  9
$DIMSTYLE
  2
LEADER
  9
$DIMCLRD
 70
     0
  9
$DIMCLRE
 70
     0
  9
$DIMCLRT
 70
     0
  9
$DIMTFAC
 40
1.0
  9
$DIMGAP
 40
0.125
  9
$DIMJUST
 70
     0
  9
$DIMSD1
 70
     0
  9
$DIMSD2
 70
     0
  9
$DIMTOLJ
 70
     0
  9
$DIMTZIN
 70
     0
  9
$DIMALTZ
 70
     0
  9
$DIMALTTZ
 70
     0
  9
$DIMFIT
 70
     1
  9
$DIMUPT
 70
     1
  9
$DIMUNIT
 70
     4
  9
$DIMDEC
 70
     4
  9
$DIMTDEC
 70
     2
  9
$DIMALTU
 70
     2
  9
$DIMALTTD
 70
     1
  9
$DIMTXSTY
  7
ARCH
  9
$DIMAUNIT
 70
     0
  9
$LUNITS
 70
     4
  9
$LUPREC
 70
     4
  9
$SKETCHINC
 40
12.0
  9
$FILLETRAD
 40
0.0
  9
$AUNITS
 70
     0
  9
$AUPREC
 70
     0
  9
$MENU
  1
.
  9
$ELEVATION
 40
0.0
  9
$PELEVATION
 40
0.0
  9
$THICKNESS
 40
0.0
  9
$LIMCHECK
 70
     0
  9
$BLIPMODE
 70
     0
  9
$CHAMFERA
 40
24.0
  9
$CHAMFERB
 40
24.0
  9
$CHAMFERC
 40
24.0
  9
$CHAMFERD
 40
0.785398
  9
$SKPOLY
 70
     0
  9
$TDCREATE
 40
2451091.602561805
  9
$TDUPDATE
 40
2451103.340599074
  9
$TDINDWG
 40
0.0993446759
  9
$TDUSRTIMER
 40
0.0993446759
  9
$USRTIMER
 70
     1
  9
$ANGBASE
 50
0.0
  9
$ANGDIR
 70
     0
  9
$PDMODE
 70
     0
  9
$PDSIZE
 40
4.0
  9
$PLINEWID
 40
0.0
  9
$COORDS
 70
     2
  9
$SPLFRAME
 70
     0
  9
$SPLINETYPE
 70
     6
  9
$SPLINESEGS
 70
     8
  9
$ATTDIA
 70
     0
  9
$ATTREQ
 70
     1
  9
$HANDLING
 70
     1
  9
$HANDSEED
  5
116E6
  9
$SURFTAB1
 70
     6
  9
$SURFTAB2
 70
     6
  9
$SURFTYPE
 70
     6
  9
$SURFU
 70
     6
  9
$SURFV
 70
     6
  9
$UCSNAME
  2

  9
$UCSORG
 10
0.0
 20
0.0
 30
0.0
  9
$UCSXDIR
 10
1.0
 20
0.0
 30
0.0
  9
$UCSYDIR
 10
0.0
 20
1.0
 30
0.0
  9
$PUCSNAME
  2

  9
$PUCSORG
 10
0.0
 20
0.0
 30
0.0
  9
$PUCSXDIR
 10
1.0
 20
0.0
 30
0.0
  9
$PUCSYDIR
 10
0.0
 20
1.0
 30
0.0
  9
$USERI1
 70
     0
  9
$USERI2
 70
     0
  9
$USERI3
 70
     0
  9
$USERI4
 70
     0
  9
$USERI5
 70
     0
  9
$USERR1
 40
0.0
  9
$USERR2
 40
0.0
  9
$USERR3
 40
0.0
  9
$USERR4
 40
0.0
  9
$USERR5
 40
0.0
  9
$WORLDVIEW
 70
     1
  9
$SHADEDGE
 70
     3
  9
$SHADEDIF
 70
    70
  9
$TILEMODE
 70
     1
  9
$MAXACTVP
 70
    16
  9
$PINSBASE
 10
0.0
 20
0.0
 30
0.0
  9
$PLIMCHECK
 70
     0
  9
$PEXTMIN
 10
1.000000E+20
 20
1.000000E+20
 30
1.000000E+20
  9
$PEXTMAX
 10
-1.000000E+20
 20
-1.000000E+20
 30
-1.000000E+20
  9
$PLIMMIN
 10
0.0
 20
0.0
  9
$PLIMMAX
 10
12.0
 20
9.0
  9
$UNITMODE
 70
     0
  9
$VISRETAIN
 70
     0
  9
$PLINEGEN
 70
     0
  9
$PSLTSCALE
 70
     1
  9
$TREEDEPTH
 70
  3020
  9
$PICKSTYLE
 70
     1
  9
$CMLSTYLE
  2
STANDARD
  9
$CMLJUST
 70
     0
  9
$CMLSCALE
 40
1.0
  9
$SAVEIMAGES
 70
     0
  0
ENDSEC
  0
SECTION
  2
CLASSES
  0
ENDSEC
  0
SECTION
  2
TABLES
  0
TABLE
  2
VPORT
  5
8
100
AcDbSymbolTable
 70
     4
  0
VPORT
  5
116E5
100
AcDbSymbolTableRecord
100
AcDbViewportTableRecord
  2
*ACTIVE
 70
     0
 10
0.0
 20
0.0
 11
1.0
 21
1.0
 12
38.477638
 22
43.981403
 13
0.0
 23
0.0
 14
0.125
 24
0.125
 15
1.0
 25
1.0
 16
0.0
 26
0.0
 36
1.0
 17
0.0
 27
0.0
 37
0.0
 40
87.962806
 41
1.474462
 42
50.0
 43
0.0
 44
0.0
 50
0.0
 51
0.0
 71
     0
 72
   100
 73
     1
 74
     0
 75
     1
 76
     0
 77
     0
 78
     0
  0
ENDTAB
  0
TABLE
  2
LTYPE
  5
5
100
AcDbSymbolTable
 70
     1
  0
LTYPE
  5
14
100
AcDbSymbolTableRecord
100
AcDbLinetypeTableRecord
  2
BYBLOCK
 70
     0
  3

 72
    65
 73
     0
 40
0.0
  0
LTYPE
  5
15
100
AcDbSymbolTableRecord
100
AcDbLinetypeTableRecord
  2
BYLAYER
 70
     0
  3

 72
    65
 73
     0
 40
0.0
  0
LTYPE
  5
16
100
AcDbSymbolTableRecord
100
AcDbLinetypeTableRecord
  2
CONTINUOUS
 70
    64
  3
Solid line
 72
    65
 73
     0
 40
0.0
  0
ENDTAB
  0
TABLE
  2
LAYER
  5
2
100
AcDbSymbolTable
 70
    13
  0
LAYER
  5
F
100
AcDbSymbolTableRecord
100
AcDbLayerTableRecord
  2
0
 70
     0
 62
     7
  6
CONTINUOUS
  0
LAYER
  5
2F
100
AcDbSymbolTableRecord
100
AcDbLayerTableRecord
  2
STUD
 70
    64
 62
     5
  6
CONTINUOUS
  0
LAYER
  5
30
100
AcDbSymbolTableRecord
100
AcDbLayerTableRecord
  2
TRACK
 70
    64
 62
     1
  6
CONTINUOUS
  0
LAYER
  5
31
100
AcDbSymbolTableRecord
100
AcDbLayerTableRecord
  2
BLACK_IRON
 70
    64
 62
     7
  6
CONTINUOUS
  0
LAYER
  5
34
100
AcDbSymbolTableRecord
100
AcDbLayerTableRecord
  2
STEEL
 70
    64
 62
   142
  6
CONTINUOUS
  0
LAYER
  5
37
100
AcDbSymbolTableRecord
100
AcDbLayerTableRecord
  2
FASTENER
 70
    64
 62
     7
  6
CONTINUOUS
  0
LAYER
  5
39
100
AcDbSymbolTableRecord
100
AcDbLayerTableRecord
  2
CLIP
 70
    64
 62
    10
  6
CONTINUOUS
  0
LAYER
  5
3B
100
AcDbSymbolTableRecord
100
AcDbLayerTableRecord
  2
_KTI_CONTROL
 70
     5
 62
     7
  6
CONTINUOUS
  0
LAYER
  5
E9D8
100
AcDbSymbolTableRecord
100
AcDbLayerTableRecord
  2
LINK
 70
    64
 62
     7
  6
CONTINUOUS
  0
LAYER
  5
10F2E
100
AcDbSymbolTableRecord
100
AcDbLayerTableRecord
  2
DEFPOINTS
 70
    64
 62
     7
  6
CONTINUOUS
  0
LAYER
  5
1141A
100
AcDbSymbolTableRecord
100
AcDbLayerTableRecord
  2
D-TEXT
 70
    64
 62
    94
  6
CONTINUOUS
  0
LAYER
  5
1141B
100
AcDbSymbolTableRecord
100
AcDbLayerTableRecord
  2
LAYOUT
 70
    65
 62
    52
  6
CONTINUOUS
  0
LAYER
  5
11423
100
AcDbSymbolTableRecord
100
AcDbLayerTableRecord
  2
BLD_TEXT
 70
    64
 62
   200
  6
CONTINUOUS
  0
ENDTAB
  0
TABLE
  2
STYLE
  5
3
100
AcDbSymbolTable
 70
     4
  0
STYLE
  5
10
100
AcDbSymbolTableRecord
100
AcDbTextStyleTableRecord
  2
STANDARD
 70
     0
 40
0.0
 41
1.0
 50
0.0
 71
     0
 42
12.0
  3
txt
  4

  0
STYLE
  5
4E
100
AcDbSymbolTableRecord
100
AcDbTextStyleTableRecord
  2
ARCH
 70
    64
 40
1.5
 41
1.0
 50
0.0
 71
     0
 42
1.0
  3
F:\r13\com\fonts\Architxt.shx
  4

  0
STYLE
  5
13AF
100
AcDbSymbolTableRecord
100
AcDbTextStyleTableRecord
  2
BLOCK
 70
    64
 40
0.0
 41
1.0
 50
0.0
 71
     0
 42
2.0
  3
F:\r13\com\fonts\monos.ttf
  4

  0
STYLE
  5
11424
100
AcDbSymbolTableRecord
100
AcDbTextStyleTableRecord
  2
BLD
 70
    64
 40
0.0
 41
1.0
 50
0.0
 71
     0
 42
1.5
  3
F:\r13\com\fonts\monos.ttf
  4

  0
ENDTAB
  0
TABLE
  2
VIEW
  5
6
100
AcDbSymbolTable
 70
     1
  0
VIEW
  5
81B3
100
AcDbSymbolTableRecord
100
AcDbViewTableRecord
  2
ALL
 70
     0
 40
104.0
 10
59.0625
 20
51.0
 41
118.875
 11
0.0
 21
0.0
 31
1.0
 12
0.0
 22
0.0
 32
0.0
 42
50.0
 43
0.0
 44
0.0
 50
0.0
 71
     0
  0
ENDTAB
  0
TABLE
  2
UCS
  5
7
100
AcDbSymbolTable
 70
     0
  0
ENDTAB
  0
TABLE
  2
APPID
  5
9
100
AcDbSymbolTable
 70
     5
  0
APPID
  5
11
100
AcDbSymbolTableRecord
100
AcDbRegAppTableRecord
  2
ACAD
 70
     0
  0
APPID
  5
3A
100
AcDbSymbolTableRecord
100
AcDbRegAppTableRecord
  2
_KTI_ARCHT
 70
     0
  0
APPID
  5
13B1
100
AcDbSymbolTableRecord
100
AcDbRegAppTableRecord
  2
AVE_FINISH
 70
     0
  0
APPID
  5
13B2
100
AcDbSymbolTableRecord
100
AcDbRegAppTableRecord
  2
ADE
 70
     0
  0
APPID
  5
13B3
100
AcDbSymbolTableRecord
100
AcDbRegAppTableRecord
  2
PE_URL
 70
     0
  0
ENDTAB
  0
TABLE
  2
DIMSTYLE
  5
A
100
AcDbSymbolTable
 70
     2
  0
DIMSTYLE
105
1D
100
AcDbSymbolTableRecord
100
AcDbDimStyleTableRecord
  2
STANDARD
 70
     0
  3

  4

  5

  6

  7

 40
12.0
 41
0.1875
 42
0.0625
 43
0.375
 44
0.1875
 45
0.0
 46
0.0
 47
0.0
 48
0.0
140
0.18
141
0.0625
142
0.0
143
25.4
144
1.0
145
0.0
146
1.0
147
0.0625
 71
     0
 72
     0
 73
     1
 74
     1
 75
     0
 76
     0
 77
     0
 78
     0
170
     0
171
     2
172
     0
173
     0
174
     0
175
     0
176
     0
177
     0
178
     0
270
     2
271
     4
272
     4
273
     2
274
     2
340
10
275
     0
280
     0
281
     0
282
     0
283
     1
284
     0
285
     0
286
     0
287
     3
288
     0
  0
DIMSTYLE
105
13B0
100
AcDbSymbolTableRecord
100
AcDbDimStyleTableRecord
  2
LEADER
 70
     0
  3

  4

  5
OBLIQUE
  6
_OPEN90
  7
_OPEN90
 40
12.0
 41
0.1875
 42
0.0625
 43
0.375
 44
0.1875
 45
0.0
 46
0.0
 47
0.0
 48
0.0
140
0.125
141
0.1875
142
0.0
143
25.4
144
1.0
145
0.0
146
1.0
147
0.125
 71
     0
 72
     0
 73
     1
 74
     1
 75
     0
 76
     0
 77
     0
 78
     0
170
     0
171
     1
172
     0
173
     1
174
     0
175
     0
176
     0
177
     0
178
     0
270
     4
271
     4
272
     2
273
     2
274
     1
340
4E
275
     0
280
     0
281
     0
282
     0
283
     0
284
     0
285
     0
286
     0
287
     1
288
     1
  0
ENDTAB
  0
TABLE
  2
BLOCK_RECORD
  5
1
100
AcDbSymbolTable
 70
     6
  0
BLOCK_RECORD
  5
1A
100
AcDbSymbolTableRecord
100
AcDbBlockTableRecord
  2
*MODEL_SPACE
  0
BLOCK_RECORD
  5
17
100
AcDbSymbolTableRecord
100
AcDbBlockTableRecord
  2
*PAPER_SPACE
  0
BLOCK_RECORD
  5
13A3
100
AcDbSymbolTableRecord
100
AcDbBlockTableRecord
  2
CEMCO_BLANK
  0
BLOCK_RECORD
  5
101A6
100
AcDbSymbolTableRecord
100
AcDbBlockTableRecord
  2
STUD_TRIM
  0
BLOCK_RECORD
  5
10F0D
100
AcDbSymbolTableRecord
100
AcDbBlockTableRecord
  2
_OPEN90
  0
BLOCK_RECORD
  5
10F25
100
AcDbSymbolTableRecord
100
AcDbBlockTableRecord
  2
*D3
  0
BLOCK_RECORD
  5
11405
100
AcDbSymbolTableRecord
100
AcDbBlockTableRecord
  2
DETAIL_TITLE
  0
BLOCK_RECORD
  5
115E2
100
AcDbSymbolTableRecord
100
AcDbBlockTableRecord
  2
*D5
  0
ENDTAB
  0
ENDSEC
  0
SECTION
  2
BLOCKS
  0
BLOCK
  5
1B
100
AcDbEntity
  8
0
100
AcDbBlockBegin
  2
*MODEL_SPACE
 70
     0
 10
0.0
 20
0.0
 30
0.0
  3
*MODEL_SPACE
  1

  0
ENDBLK
  5
1C
100
AcDbEntity
  8
0
100
AcDbBlockEnd
  0
BLOCK
  5
18
100
AcDbEntity
 67
     1
  8
0
100
AcDbBlockBegin
  2
*PAPER_SPACE
 70
     0
 10
0.0
 20
0.0
 30
0.0
  3
*PAPER_SPACE
  1

  0
ENDBLK
  5
19
100
AcDbEntity
 67
     1
  8
0
100
AcDbBlockEnd
  0
BLOCK
  5
13AC
100
AcDbEntity
  8
0
100
AcDbBlockBegin
  2
CEMCO_BLANK
 70
     0
 10
0.0
 20
0.0
 30
0.0
  3
CEMCO_BLANK
  1

  0
POLYLINE
  5
13A4
100
AcDbEntity
  8
_KTI_CONTROL
 60
     1
100
AcDb3dPolyline
 66
     1
 10
0.0
 20
0.0
 30
0.0
 70
     8
1001
_KTI_ARCHT
1070
 12000
1000
ENVIRONMENT
1070
 10003
1000
cemco_blank
1070
 20000
1000
standard
1070
 20001
1000
f:\archt
1070
 20003
1000
h:\archt
1070
 20002
1000
f:\archt\tmp
1070
 20004
1002
{
1000
f:\archt\blks
1000
f:\archt\blks3d
1000
h:\archt\blks
1000
h:\archt\blks3d
1002
}
1070
 20005
1002
{
1000
f:\archt\slds
1002
}
1070
 20006
1002
{
1000
f:\archt\dclswin
1002
}
1070
 20007
1002
{
1000
f:\archt\docs
1002
}
1070
 20008
1002
{
1000
f:\archt\help
1002
}
  0
VERTEX
  5
13A5
100
AcDbEntity
  8
_KTI_CONTROL
100
AcDbVertex
100
AcDb3dPolylineVertex
 10
0.0
 20
0.0
 30
0.0
 70
    32
  0
VERTEX
  5
13A6
100
AcDbEntity
  8
_KTI_CONTROL
100
AcDbVertex
100
AcDb3dPolylineVertex
 10
0.0
 20
0.0
 30
0.0
 70
    32
  0
SEQEND
  5
13A7
100
AcDbEntity
  8
_KTI_CONTROL
  0
POLYLINE
  5
13A8
100
AcDbEntity
  8
_KTI_CONTROL
 60
     1
100
AcDb3dPolyline
 66
     1
 10
0.0
 20
0.0
 30
0.0
 70
     8
1001
_KTI_ARCHT
1070
 12000
1000
ARCHTVARS
1070
 10003
1000
cemco_blank
1070
 12030
1000
in
1070
 12020
1070
     1
1070
 12021
1070
     0
1070
 12070
1070
     0
1070
 12071
1070
     1
1070
 12907
1070
     0
1070
 12072
1070
     2
1070
 12073
1070
    48
1070
 12074
1070
     0
1070
 12080
1070
     1
1070
 12092
1070
     1
1070
 12096
1070
     0
1070
 12095
1070
     0
1070
 12081
1070
     1
1070
 12082
1070
     1
1070
 12083
1070
     1
1070
 12084
1070
     1
1070
 12085
1070
     0
1070
 12086
1070
     1
1070
 12087
1070
     0
1070
 12088
1070
     0
1070
 12097
1070
     1
1070
 12089
1070
     4
1070
 12090
1070
     6
1070
 12091
1070
     1
1070
 12045
1000
standard
1070
 12046
1000

1070
 12047
1000
standard
1070
 12048
1000

1070
 12049
1000

1070
 12093
1070
     1
1070
 12094
1070
     1
1070
 12908
1070
     0
1070
 12909
1070
     0
1070
 12911
1070
     0
1070
 12910
1070
     0
1070
 12912
1070
     0
1070
 12098
1070
   640
1070
 12060
1002
{
1000

1000

1000

1000

1002
}
1070
 12904
1002
{
1070
     0
1070
     0
1070
     0
1070
     0
1070
     0
1002
}
1070
 12905
1002
{
1040
0.0
1040
0.0
1040
0.0
1040
0.0
1040
0.0
1002
}
1070
 12906
1002
{
1000

1000

1000

1000

1000

1002
}
1070
 12040
1002
{
1002
}
  0
VERTEX
  5
13A9
100
AcDbEntity
  8
_KTI_CONTROL
100
AcDbVertex
100
AcDb3dPolylineVertex
 10
0.0
 20
0.0
 30
0.0
 70
    32
  0
VERTEX
  5
13AA
100
AcDbEntity
  8
_KTI_CONTROL
100
AcDbVertex
100
AcDb3dPolylineVertex
 10
0.0
 20
0.0
 30
0.0
 70
    32
  0
SEQEND
  5
13AB
100
AcDbEntity
  8
_KTI_CONTROL
  0
ENDBLK
  5
13AD
100
AcDbEntity
  8
0
100
AcDbBlockEnd
  0
BLOCK
  5
101A7
100
AcDbEntity
  8
0
100
AcDbBlockBegin
  2
STUD_TRIM
 70
    64
 10
0.0
 20
0.0
 30
0.0
  3
STUD_TRIM
  1

  0
LINE
  5
101A8
100
AcDbEntity
  8
STUD
100
AcDbLine
 10
1.327491
 20
0.81862
 30
0.0
 11
1.327491
 21
-1.041871
 31
0.0
  0
LINE
  5
101A9
100
AcDbEntity
  8
STUD
100
AcDbLine
 10
1.766081
 20
0.5654
 30
0.0
 11
1.766081
 21
-0.740578
 31
0.0
  0
LINE
  5
101AA
100
AcDbEntity
  8
STUD
100
AcDbLine
 10
1.800681
 20
0.585377
 30
0.0
 11
1.800681
 21
-0.716809
 31
0.0
  0
LINE
  5
101AB
100
AcDbEntity
  8
STUD
100
AcDbLine
 10
0.802582
 20
-0.423418
 30
0.0
 11
0.767607
 21
-0.443611
 31
0.0
  0
LINE
  5
101AC
100
AcDbEntity
  8
STUD
100
AcDbLine
 10
2.282227
 20
-1.318375
 30
0.0
 11
2.31746
 21
-1.298034
 31
0.0
  0
LINE
  5
101AD
100
AcDbEntity
  8
STUD
100
AcDbLine
 10
3.931144
 20
-0.6846
 30
0.0
 11
3.931144
 21
-1.207147
 31
0.0
  0
LINE
  5
101AE
100
AcDbEntity
  8
STUD
100
AcDbLine
 10
1.299591
 20
0.81862
 30
0.0
 11
1.299591
 21
-1.061037
 31
0.0
  0
POLYLINE
  5
101AF
100
AcDbEntity
  8
STUD
100
AcDb2dPolyline
 66
     1
 10
0.0
 20
0.0
 30
0.0
  0
VERTEX
  5
101B0
100
AcDbEntity
  8
STUD
100
AcDbVertex
100
AcDb2dVertex
 10
2.282227
 20
-0.386006
 30
0.0
  0
VERTEX
  5
101B1
100
AcDbEntity
  8
STUD
100
AcDbVertex
100
AcDb2dVertex
 10
2.28286
 20
-1.31801
 30
0.0
  0
VERTEX
  5
101B2
100
AcDbEntity
  8
STUD
100
AcDbVertex
100
AcDb2dVertex
 10
3.014342
 20
-1.740331
 30
0.0
 42
0.267949
  0
VERTEX
  5
101B3
100
AcDbEntity
  8
STUD
100
AcDbVertex
100
AcDb2dVertex
 10
3.076842
 20
-1.740331
 30
0.0
  0
VERTEX
  5
101B4
100
AcDbEntity
  8
STUD
100
AcDbVertex
100
AcDb2dVertex
 10
4.359133
 20
-1.0
 30
0.0
 42
0.57735
  0
VERTEX
  5
101B5
100
AcDbEntity
  8
STUD
100
AcDbVertex
100
AcDb2dVertex
 10
4.359133
 20
-0.891747
 30
0.0
  0
VERTEX
  5
101B6
100
AcDbEntity
  8
STUD
100
AcDbVertex
100
AcDb2dVertex
 10
3.965744
 20
-0.664623
 30
0.0
  0
VERTEX
  5
101B7
100
AcDbEntity
  8
STUD
100
AcDbVertex
100
AcDb2dVertex
 10
3.931144
 20
-0.6846
 30
0.0
  0
VERTEX
  5
101B8
100
AcDbEntity
  8
STUD
100
AcDbVertex
100
AcDb2dVertex
 10
4.341833
 20
-0.921711
 30
0.0
 42
-0.57735
  0
VERTEX
  5
101B9
100
AcDbEntity
  8
STUD
100
AcDbVertex
100
AcDb2dVertex
 10
4.341833
 20
-0.970036
 30
0.0
  0
VERTEX
  5
101BA
100
AcDbEntity
  8
STUD
100
AcDbVertex
100
AcDb2dVertex
 10
3.059542
 20
-1.710367
 30
0.0
 42
-0.267949
  0
VERTEX
  5
101BB
100
AcDbEntity
  8
STUD
100
AcDbVertex
100
AcDb2dVertex
 10
3.031642
 20
-1.710367
 30
0.0
  0
VERTEX
  5
101BC
100
AcDbEntity
  8
STUD
100
AcDbVertex
100
AcDb2dVertex
 10
2.31746
 20
-1.298034
 30
0.0
  0
VERTEX
  5
101BD
100
AcDbEntity
  8
STUD
100
AcDbVertex
100
AcDb2dVertex
 10
2.31746
 20
-0.361802
 30
0.0
  0
VERTEX
  5
101BE
100
AcDbEntity
  8
STUD
100
AcDbVertex
100
AcDb2dVertex
 10
0.767607
 20
-1.426489
 30
0.0
  0
VERTEX
  5
101BF
100
AcDbEntity
  8
STUD
100
AcDbVertex
100
AcDb2dVertex
 10
0.767607
 20
-0.443611
 30
0.0
  0
VERTEX
  5
101C0
100
AcDbEntity
  8
STUD
100
AcDbVertex
100
AcDb2dVertex
 10
0.0
 20
0.0
 30
0.0
 42
-0.57735
  0
VERTEX
  5
101C1
100
AcDbEntity
  8
STUD
100
AcDbVertex
100
AcDb2dVertex
 10
0.0
 20
0.108253
 30
0.0
  0
VERTEX
  5
101C2
100
AcDbEntity
  8
STUD
100
AcDbVertex
100
AcDb2dVertex
 10
1.282291
 20
0.848584
 30
0.0
 42
-0.267949
  0
VERTEX
  5
101C3
100
AcDbEntity
  8
STUD
100
AcDbVertex
100
AcDb2dVertex
 10
1.344791
 20
0.848584
 30
0.0
  0
VERTEX
  5
101C4
100
AcDbEntity
  8
STUD
100
AcDbVertex
100
AcDb2dVertex
 10
1.800681
 20
0.585377
 30
0.0
  0
VERTEX
  5
101C5
100
AcDbEntity
  8
STUD
100
AcDbVertex
100
AcDb2dVertex
 10
1.766081
 20
0.5654
 30
0.0
  0
VERTEX
  5
101C6
100
AcDbEntity
  8
STUD
100
AcDbVertex
100
AcDb2dVertex
 10
1.327491
 20
0.81862
 30
0.0
 42
0.267949
  0
VERTEX
  5
101C7
100
AcDbEntity
  8
STUD
100
AcDbVertex
100
AcDb2dVertex
 10
1.299591
 20
0.81862
 30
0.0
  0
VERTEX
  5
101C8
100
AcDbEntity
  8
STUD
100
AcDbVertex
100
AcDb2dVertex
 10
0.0173
 20
0.078289
 30
0.0
 42
0.57735
  0
VERTEX
  5
101C9
100
AcDbEntity
  8
STUD
100
AcDbVertex
100
AcDb2dVertex
 10
0.0173
 20
0.029964
 30
0.0
  0
VERTEX
  5
101CA
100
AcDbEntity
  8
STUD
100
AcDbVertex
100
AcDb2dVertex
 10
0.802582
 20
-0.423418
 30
0.0
  0
VERTEX
  5
101CB
100
AcDbEntity
  8
STUD
100
AcDbVertex
100
AcDb2dVertex
 10
0.802582
 20
-1.400093
 30
0.0
  0
SEQEND
  5
101CC
100
AcDbEntity
  8
STUD
  0
ENDBLK
  5
101CD
100
AcDbEntity
  8
0
100
AcDbBlockEnd
  0
BLOCK
  5
10F0E
100
AcDbEntity
  8
0
100
AcDbBlockBegin
  2
_OPEN90
 70
    64
 10
0.0
 20
0.0
 30
0.0
  3
_OPEN90
  1

  0
LINE
  5
10F0F
100
AcDbEntity
  8
0
  6
BYBLOCK
 62
     0
100
AcDbLine
 10
-0.5
 20
0.5
 30
0.0
 11
0.0
 21
0.0
 31
0.0
  0
LINE
  5
10F10
100
AcDbEntity
  8
0
  6
BYBLOCK
 62
     0
100
AcDbLine
 10
0.0
 20
0.0
 30
0.0
 11
-0.5
 21
-0.5
 31
0.0
  0
LINE
  5
10F11
100
AcDbEntity
  8
0
  6
BYBLOCK
 62
     0
100
AcDbLine
 10
0.0
 20
0.0
 30
0.0
 11
-1.0
 21
0.0
 31
0.0
  0
ENDBLK
  5
10F12
100
AcDbEntity
  8
0
100
AcDbBlockEnd
  0
BLOCK
  5
115C7
100
AcDbEntity
  8
0
100
AcDbBlockBegin
  2
*D3
 70
    65
 10
0.0
 20
0.0
 30
0.0
  3
*D3
  1

  0
LINE
  5
115C8
100
AcDbEntity
  8
0
  6
BYBLOCK
 62
     0
100
AcDbLine
 10
41.456468
 20
50.376984
 30
0.0
 11
41.456468
 21
47.875
 31
0.0
  0
LINE
  5
115C9
100
AcDbEntity
  8
0
  6
BYBLOCK
 62
     0
100
AcDbLine
 10
42.755506
 20
49.915659
 30
0.0
 11
42.755506
 21
47.875
 31
0.0
  0
LINE
  5
115CA
100
AcDbEntity
  8
0
  6
BYBLOCK
 62
     0
100
AcDbLine
 10
39.206468
 20
50.125
 30
0.0
 11
36.956468
 21
50.125
 31
0.0
  0
LINE
  5
115CB
100
AcDbEntity
  8
0
  6
BYBLOCK
 62
     0
100
AcDbLine
 10
45.005506
 20
50.125
 30
0.0
 11
46.505506
 21
50.125
 31
0.0
  0
INSERT
  5
115CC
100
AcDbEntity
  8
0
  6
BYBLOCK
 62
     0
100
AcDbBlockReference
  2
_OPEN90
 10
41.456468
 20
50.125
 30
0.0
 41
2.25
 42
2.25
 43
2.25
  0
INSERT
  5
115CD
100
AcDbEntity
  8
0
  6
BYBLOCK
 62
     0
100
AcDbBlockReference
  2
_OPEN90
 10
42.755506
 20
50.125
 30
0.0
 41
2.25
 42
2.25
 43
2.25
 50
180.0
  0
MTEXT
  5
115CE
100
AcDbEntity
  8
0
  6
BYBLOCK
 62
     0
100
AcDbMText
 10
50.772748
 20
50.125
 30
0.0
 40
1.5
 41
0.0
 71
     5
 72
     1
  1
{1-1/2"}
  7
ARCH
  0
POINT
  5
115CF
100
AcDbEntity
  8
DEFPOINTS
  6
BYBLOCK
 62
     0
100
AcDbPoint
 10
41.456468
 20
51.126984
 30
0.0
  0
POINT
  5
115D0
100
AcDbEntity
  8
DEFPOINTS
  6
BYBLOCK
 62
     0
100
AcDbPoint
 10
42.755506
 20
50.665659
 30
0.0
  0
POINT
  5
115D1
100
AcDbEntity
  8
DEFPOINTS
  6
BYBLOCK
 62
     0
100
AcDbPoint
 10
42.755506
 20
50.125
 30
0.0
  0
ENDBLK
  5
115D2
100
AcDbEntity
  8
0
100
AcDbBlockEnd
  0
BLOCK
  5
1140E
100
AcDbEntity
  8
0
100
AcDbBlockBegin
  2
DETAIL_TITLE
 70
    66
 10
0.0
 20
0.0
 30
0.0
  3
DETAIL_TITLE
  1

  0
ATTDEF
  5
11406
100
AcDbEntity
  8
D-TEXT
100
AcDbText
 10
1.163519
 20
0.650143
 30
0.0
 40
0.25
  1
TYP. 
  7
BLOCK
100
AcDbAttributeDefinition
  3
Enter the title of the detail
  2
DETAIL_DISCRIPTION
 70
     0
  0
POLYLINE
  5
11407
100
AcDbEntity
  8
D-TEXT
100
AcDb2dPolyline
 66
     1
 10
0.0
 20
0.0
 30
0.0
 40
0.05
 41
0.05
  0
VERTEX
  5
11408
100
AcDbEntity
  8
D-TEXT
100
AcDbVertex
100
AcDb2dVertex
 10
1.038519
 20
0.51926
 30
0.0
  0
VERTEX
  5
11409
100
AcDbEntity
  8
D-TEXT
100
AcDbVertex
100
AcDb2dVertex
 10
7.93
 20
0.51926
 30
0.0
  0
SEQEND
  5
1140A
100
AcDbEntity
  8
D-TEXT
  0
ATTDEF
  5
1140B
100
AcDbEntity
  8
D-TEXT
100
AcDbText
 10
0.189467
 20
0.39426
 30
0.0
 40
0.25
  1
D-#
  7
BLD
 72
     1
 11
0.51926
 21
0.51926
 31
0.0
100
AcDbAttributeDefinition
  3
Enter the Detail number
  2
DETAIL_NO
 70
     0
 74
     2
  0
ATTDEF
  5
1140C
100
AcDbEntity
  8
D-TEXT
100
AcDbText
 10
1.163519
 20
0.172049
 30
0.0
 40
0.1875
  1
N. T. Scale 1-1/2" = 1'0"
  7
BLOCK
100
AcDbAttributeDefinition
  3
Type the defanition of scale
  2
SCALE
 70
     0
  0
CIRCLE
  5
1140D
100
AcDbEntity
  8
D-TEXT
100
AcDbCircle
 10
0.51926
 20
0.51926
 30
0.0
 40
0.51926
  0
ENDBLK
  5
1140F
100
AcDbEntity
  8
0
100
AcDbBlockEnd
  0
BLOCK
  5
11659
100
AcDbEntity
  8
0
100
AcDbBlockBegin
  2
*D5
 70
    65
 10
0.0
 20
0.0
 30
0.0
  3
*D5
  1

  0
LINE
  5
1165A
100
AcDbEntity
  8
0
  6
BYBLOCK
 62
     0
100
AcDbLine
 10
62.53135
 20
65.283673
 30
0.0
 11
68.670827
 21
68.828302
 31
0.0
  0
LINE
  5
1165B
100
AcDbEntity
  8
0
  6
BYBLOCK
 62
     0
100
AcDbLine
 10
61.638306
 20
66.830469
 30
0.0
 11
67.777784
 21
70.375098
 31
0.0
  0
LINE
  5
1165C
100
AcDbEntity
  8
0
  6
BYBLOCK
 62
     0
100
AcDbLine
 10
64.704227
 20
71.198655
 30
0.0
 11
63.579227
 21
73.147212
 31
0.0
  0
LINE
  5
1165D
100
AcDbEntity
  8
0
  6
BYBLOCK
 62
     0
100
AcDbLine
 10
67.84727
 20
65.754745
 30
0.0
 11
68.59727
 21
64.455706
 31
0.0
  0
LINE
  5
1165E
100
AcDbEntity
  8
0
  6
BYBLOCK
 62
     0
100
AcDbLine
 10
68.59727
 20
64.455706
 30
0.0
 11
70.84727
 21
64.455706
 31
0.0
  0
INSERT
  5
1165F
100
AcDbEntity
  8
0
  6
BYBLOCK
 62
     0
100
AcDbBlockReference
  2
_OPEN90
 10
65.829227
 20
69.250098
 30
0.0
 41
2.25
 42
2.25
 43
2.25
 50
300.0
  0
INSERT
  5
11660
100
AcDbEntity
  8
0
  6
BYBLOCK
 62
     0
100
AcDbBlockReference
  2
_OPEN90
 10
66.72227
 20
67.703302
 30
0.0
 41
2.25
 42
2.25
 43
2.25
 50
120.0
  0
MTEXT
  5
11661
100
AcDbEntity
  8
0
  6
BYBLOCK
 62
     0
100
AcDbMText
 10
75.502442
 20
64.455706
 30
0.0
 40
1.5
 41
0.0
 71
     5
 72
     1
  1
{1-5/8"}
  7
ARCH
  0
POINT
  5
11662
100
AcDbEntity
  8
DEFPOINTS
  6
BYBLOCK
 62
     0
100
AcDbPoint
 10
61.881831
 20
64.908673
 30
0.0
  0
POINT
  5
11663
100
AcDbEntity
  8
DEFPOINTS
  6
BYBLOCK
 62
     0
100
AcDbPoint
 10
60.988787
 20
66.455469
 30
0.0
  0
POINT
  5
11664
100
AcDbEntity
  8
DEFPOINTS
  6
BYBLOCK
 62
     0
100
AcDbPoint
 10
65.829227
 20
69.250098
 30
0.0
  0
ENDBLK
  5
11665
100
AcDbEntity
  8
0
100
AcDbBlockEnd
  0
ENDSEC
  0
SECTION
  2
ENTITIES
  0
LINE
  5
1A0A
100
AcDbEntity
  8
TRACK
100
AcDbLine
 10
36.168787
 20
28.894412
 30
0.0
 11
67.983676
 21
47.262746
 31
0.0
  0
LINE
  5
1A0B
100
AcDbEntity
  8
TRACK
100
AcDbLine
 10
67.983676
 20
48.813643
 30
0.0
 11
36.168787
 21
30.445309
 31
0.0
  0
LINE
  5
1B54
100
AcDbEntity
  8
TRACK
100
AcDbLine
 10
67.949076
 20
48.83362
 30
0.0
 11
36.134187
 21
30.465285
 31
0.0
  0
ELLIPSE
  5
2667
100
AcDbEntity
  8
FASTENER
100
AcDbEllipse
 10
44.309606
 20
34.305432
 30
0.0
 11
0.0765465544619697
 21
0.132582521472475
 31
0.0
210
0.0
220
0.0
230
-1.0
 40
0.57735
 41
0.0000000000000231
 42
6.283185307179623
  0
LINE
  5
2668
100
AcDbEntity
  8
FASTENER
100
AcDbLine
 10
44.201353
 20
34.242932
 30
0.0
 11
44.417859
 21
34.367932
 31
0.0
  0
LINE
  5
2669
100
AcDbEntity
  8
FASTENER
100
AcDbLine
 10
44.308376
 20
34.430426
 30
0.0
 11
44.310836
 21
34.180438
 31
0.0
  0
POLYLINE
  5
2680
100
AcDbEntity
  8
STUD
100
AcDb2dPolyline
 66
     1
 10
0.0
 20
0.0
 30
0.0
 70
     1
  0
VERTEX
  5
2681
100
AcDbEntity
  8
STUD
100
AcDbVertex
100
AcDb2dVertex
 10
42.755506
 20
47.915659
 30
0.0
 42
0.267949
  0
VERTEX
  5
2682
100
AcDbEntity
  8
STUD
100
AcDbVertex
100
AcDb2dVertex
 10
42.630506
 20
48.132165
 30
0.0
  0
VERTEX
  5
2683
100
AcDbEntity
  8
STUD
100
AcDbVertex
100
AcDb2dVertex
 10
41.831468
 20
48.59349
 30
0.0
 42
0.57735
  0
VERTEX
  5
2684
100
AcDbEntity
  8
STUD
100
AcDbVertex
100
AcDb2dVertex
 10
41.456468
 20
48.376984
 30
0.0
  0
VERTEX
  5
2685
100
AcDbEntity
  8
STUD
100
AcDbVertex
100
AcDb2dVertex
 10
41.456468
 20
45.704334
 30
0.0
 42
0.267949
  0
VERTEX
  5
2686
100
AcDbEntity
  8
STUD
100
AcDbVertex
100
AcDb2dVertex
 10
41.581468
 20
45.487828
 30
0.0
  0
VERTEX
  5
2687
100
AcDbEntity
  8
STUD
100
AcDbVertex
100
AcDb2dVertex
 10
42.380506
 20
45.026503
 30
0.0
 42
0.57735
  0
VERTEX
  5
2688
100
AcDbEntity
  8
STUD
100
AcDbVertex
100
AcDb2dVertex
 10
42.755506
 20
45.243009
 30
0.0
  0
SEQEND
  5
2689
100
AcDbEntity
  8
STUD
  0
POLYLINE
  5
26A9
100
AcDbEntity
  8
STUD
100
AcDb2dPolyline
 66
     1
 10
0.0
 20
0.0
 30
0.0
 70
     1
  0
VERTEX
  5
26AA
100
AcDbEntity
  8
STUD
100
AcDbVertex
100
AcDb2dVertex
 10
42.755506
 20
71.915659
 30
0.0
 42
0.267949
  0
VERTEX
  5
26AB
100
AcDbEntity
  8
STUD
100
AcDbVertex
100
AcDb2dVertex
 10
42.630506
 20
72.132165
 30
0.0
  0
VERTEX
  5
26AC
100
AcDbEntity
  8
STUD
100
AcDbVertex
100
AcDb2dVertex
 10
41.831468
 20
72.59349
 30
0.0
 42
0.57735
  0
VERTEX
  5
26AD
100
AcDbEntity
  8
STUD
100
AcDbVertex
100
AcDb2dVertex
 10
41.456468
 20
72.376984
 30
0.0
  0
VERTEX
  5
26AE
100
AcDbEntity
  8
STUD
100
AcDbVertex
100
AcDb2dVertex
 10
41.456468
 20
69.704334
 30
0.0
 42
0.267949
  0
VERTEX
  5
26AF
100
AcDbEntity
  8
STUD
100
AcDbVertex
100
AcDb2dVertex
 10
41.581468
 20
69.487828
 30
0.0
  0
VERTEX
  5
26B0
100
AcDbEntity
  8
STUD
100
AcDbVertex
100
AcDb2dVertex
 10
42.380506
 20
69.026503
 30
0.0
 42
0.57735
  0
VERTEX
  5
26B1
100
AcDbEntity
  8
STUD
100
AcDbVertex
100
AcDb2dVertex
 10
42.755506
 20
69.243009
 30
0.0
  0
SEQEND
  5
26B2
100
AcDbEntity
  8
STUD
  0
ELLIPSE
  5
26C7
100
AcDbEntity
  8
FASTENER
100
AcDbEllipse
 10
58.166012
 20
42.305432
 30
0.0
 11
0.0765465544619697
 21
0.132582521472475
 31
0.0
210
0.0
220
0.0
230
-1.0
 40
0.57735
 41
0.0000000000000231
 42
6.283185307179623
  0
LINE
  5
26C8
100
AcDbEntity
  8
FASTENER
100
AcDbLine
 10
58.057759
 20
42.242932
 30
0.0
 11
58.274265
 21
42.367932
 31
0.0
  0
LINE
  5
26C9
100
AcDbEntity
  8
FASTENER
100
AcDbLine
 10
58.164782
 20
42.430426
 30
0.0
 11
58.167242
 21
42.180438
 31
0.0
  0
POLYLINE
  5
26E0
100
AcDbEntity
  8
STUD
100
AcDb2dPolyline
 66
     1
 10
0.0
 20
0.0
 30
0.0
 70
     1
  0
VERTEX
  5
26E1
100
AcDbEntity
  8
STUD
100
AcDbVertex
100
AcDb2dVertex
 10
56.611913
 20
55.915659
 30
0.0
 42
0.267949
  0
VERTEX
  5
26E2
100
AcDbEntity
  8
STUD
100
AcDbVertex
100
AcDb2dVertex
 10
56.486913
 20
56.132165
 30
0.0
  0
VERTEX
  5
26E3
100
AcDbEntity
  8
STUD
100
AcDbVertex
100
AcDb2dVertex
 10
55.687875
 20
56.59349
 30
0.0
 42
0.57735
  0
VERTEX
  5
26E4
100
AcDbEntity
  8
STUD
100
AcDbVertex
100
AcDb2dVertex
 10
55.312875
 20
56.376984
 30
0.0
  0
VERTEX
  5
26E5
100
AcDbEntity
  8
STUD
100
AcDbVertex
100
AcDb2dVertex
 10
55.312875
 20
53.704334
 30
0.0
 42
0.267949
  0
VERTEX
  5
26E6
100
AcDbEntity
  8
STUD
100
AcDbVertex
100
AcDb2dVertex
 10
55.437875
 20
53.487828
 30
0.0
  0
VERTEX
  5
26E7
100
AcDbEntity
  8
STUD
100
AcDbVertex
100
AcDb2dVertex
 10
56.236913
 20
53.026503
 30
0.0
 42
0.57735
  0
VERTEX
  5
26E8
100
AcDbEntity
  8
STUD
100
AcDbVertex
100
AcDb2dVertex
 10
56.611913
 20
53.243009
 30
0.0
  0
SEQEND
  5
26E9
100
AcDbEntity
  8
STUD
  0
LINE
  5
26EE
100
AcDbEntity
  8
STUD
100
AcDbLine
 10
58.689356
 20
86.105848
 30
0.0
 11
58.689356
 21
43.510114
 31
0.0
  0
POLYLINE
  5
2709
100
AcDbEntity
  8
STUD
100
AcDb2dPolyline
 66
     1
 10
0.0
 20
0.0
 30
0.0
 70
     1
  0
VERTEX
  5
270A
100
AcDbEntity
  8
STUD
100
AcDbVertex
100
AcDb2dVertex
 10
56.611913
 20
79.915659
 30
0.0
 42
0.267949
  0
VERTEX
  5
270B
100
AcDbEntity
  8
STUD
100
AcDbVertex
100
AcDb2dVertex
 10
56.486913
 20
80.132165
 30
0.0
  0
VERTEX
  5
270C
100
AcDbEntity
  8
STUD
100
AcDbVertex
100
AcDb2dVertex
 10
55.687875
 20
80.59349
 30
0.0
 42
0.57735
  0
VERTEX
  5
270D
100
AcDbEntity
  8
STUD
100
AcDbVertex
100
AcDb2dVertex
 10
55.312875
 20
80.376984
 30
0.0
  0
VERTEX
  5
270E
100
AcDbEntity
  8
STUD
100
AcDbVertex
100
AcDb2dVertex
 10
55.312875
 20
77.704334
 30
0.0
 42
0.267949
  0
VERTEX
  5
270F
100
AcDbEntity
  8
STUD
100
AcDbVertex
100
AcDb2dVertex
 10
55.437875
 20
77.487828
 30
0.0
  0
VERTEX
  5
2710
100
AcDbEntity
  8
STUD
100
AcDbVertex
100
AcDb2dVertex
 10
56.236913
 20
77.026503
 30
0.0
 42
0.57735
  0
VERTEX
  5
2711
100
AcDbEntity
  8
STUD
100
AcDbVertex
100
AcDb2dVertex
 10
56.611913
 20
77.243009
 30
0.0
  0
SEQEND
  5
2712
100
AcDbEntity
  8
STUD
  0
LINE
  5
28B8
100
AcDbEntity
  8
STUD
100
AcDbLine
 10
42.274497
 20
48.337707
 30
0.0
 11
42.274497
 21
45.087707
 31
0.0
  0
LINE
  5
28B9
100
AcDbEntity
  8
STUD
100
AcDbLine
 10
42.239897
 20
48.357684
 30
0.0
 11
42.239897
 21
45.107684
 31
0.0
  0
LINE
  5
28BA
100
AcDbEntity
  8
STUD
100
AcDbLine
 10
41.801308
 20
48.608296
 30
0.0
 11
41.801308
 21
45.360903
 31
0.0
  0
LINE
  5
28BB
100
AcDbEntity
  8
STUD
100
AcDbLine
 10
42.274497
 20
72.337707
 30
0.0
 11
42.274497
 21
69.087707
 31
0.0
  0
LINE
  5
28BC
100
AcDbEntity
  8
STUD
100
AcDbLine
 10
42.239897
 20
72.357684
 30
0.0
 11
42.239897
 21
69.107684
 31
0.0
  0
LINE
  5
28BD
100
AcDbEntity
  8
STUD
100
AcDbLine
 10
41.801308
 20
72.608296
 30
0.0
 11
41.801308
 21
69.360903
 31
0.0
  0
LINE
  5
28C7
100
AcDbEntity
  8
STUD
100
AcDbLine
 10
56.130903
 20
56.337707
 30
0.0
 11
56.130903
 21
53.087707
 31
0.0
  0
LINE
  5
28C8
100
AcDbEntity
  8
STUD
100
AcDbLine
 10
56.096303
 20
56.357684
 30
0.0
 11
56.096303
 21
53.107684
 31
0.0
  0
LINE
  5
28C9
100
AcDbEntity
  8
STUD
100
AcDbLine
 10
55.657714
 20
56.608296
 30
0.0
 11
55.657714
 21
53.360903
 31
0.0
  0
LINE
  5
715A
100
AcDbEntity
  8
STUD
100
AcDbLine
 10
57.344565
 20
85.365517
 30
0.0
 11
57.344565
 21
42.733162
 31
0.0
  0
LINE
  5
715B
100
AcDbEntity
  8
STUD
100
AcDbLine
 10
57.407065
 20
85.365517
 30
0.0
 11
57.407065
 21
42.769272
 31
0.0
  0
LINE
  5
71DA
100
AcDbEntity
  8
STUD
100
AcDbLine
 10
43.550658
 20
77.915655
 30
0.0
 11
43.550658
 21
34.758223
 31
0.0
  0
LINE
  5
71DB
100
AcDbEntity
  8
STUD
100
AcDbLine
 10
43.488158
 20
77.915655
 30
0.0
 11
43.488158
 21
34.722113
 31
0.0
  0
POLYLINE
  5
71DD
100
AcDbEntity
  8
STUD
100
AcDb2dPolyline
 66
     1
 10
0.0
 20
0.0
 30
0.0
  0
VERTEX
  5
71DE
100
AcDbEntity
  8
STUD
100
AcDbVertex
100
AcDb2dVertex
 10
54.330223
 20
43.254921
 30
0.0
 42
0.57735
  0
VERTEX
  5
71DF
100
AcDbEntity
  8
STUD
100
AcDbVertex
100
AcDb2dVertex
 10
54.330223
 20
43.146668
 30
0.0
  0
VERTEX
  5
71E0
100
AcDbEntity
  8
STUD
100
AcDbVertex
100
AcDb2dVertex
 10
56.195897
 20
42.069521
 30
0.0
 42
0.267949
  0
SEQEND
  5
71E1
100
AcDbEntity
  8
STUD
  0
POLYLINE
  5
71EC
100
AcDbEntity
  8
STUD
100
AcDb2dPolyline
 66
     1
 10
0.0
 20
0.0
 30
0.0
  0
VERTEX
  5
71ED
100
AcDbEntity
  8
STUD
100
AcDbVertex
100
AcDb2dVertex
 10
40.473816
 20
35.254921
 30
0.0
 42
0.57735
  0
VERTEX
  5
71EE
100
AcDbEntity
  8
STUD
100
AcDbVertex
100
AcDb2dVertex
 10
40.473816
 20
35.146668
 30
0.0
  0
VERTEX
  5
71EF
100
AcDbEntity
  8
STUD
100
AcDbVertex
100
AcDb2dVertex
 10
42.344273
 20
34.066759
 30
0.0
 42
0.267949
  0
SEQEND
  5
71F0
100
AcDbEntity
  8
STUD
  0
LINE
  5
7209
100
AcDbEntity
  8
TRACK
100
AcDbLine
 10
64.825359
 20
49.012099
 30
0.0
 11
58.710674
 21
45.485005
 31
0.0
  0
LINE
  5
720E
100
AcDbEntity
  8
TRACK
100
AcDbLine
 10
58.689356
 20
47.152471
 30
0.0
 11
64.775134
 21
50.666096
 31
0.0
  0
LINE
  5
720F
100
AcDbEntity
  8
TRACK
100
AcDbLine
 10
54.503176
 20
43.046814
 30
0.0
 11
44.83295
 21
37.465634
 31
0.0
  0
LINE
  5
7210
100
AcDbEntity
  8
TRACK
100
AcDbLine
 10
54.330223
 20
44.607249
 30
0.0
 11
44.83295
 21
39.12021
 31
0.0
  0
LINE
  5
7214
100
AcDbEntity
  8
TRACK
100
AcDbLine
 10
32.960245
 20
32.297762
 30
0.0
 11
40.473816
 21
36.635724
 31
0.0
  0
LINE
  5
D878
100
AcDbEntity
  8
TRACK
100
AcDbLine
 10
44.925025
 20
59.615061
 30
0.0
 11
57.265887
 21
66.740061
 31
0.0
  0
LINE
  5
D879
100
AcDbEntity
  8
TRACK
100
AcDbLine
 10
54.189045
 20
68.516476
 30
0.0
 11
50.427976
 21
66.345022
 31
0.0
  0
LINE
  5
D87B
100
AcDbEntity
  8
TRACK
100
AcDbLine
 10
44.95795
 20
59.558033
 30
0.0
 11
57.298812
 21
66.683033
 31
0.0
  0
LINE
  5
D88D
100
AcDbEntity
  8
TRACK
100
AcDbLine
 10
57.298812
 20
65.056099
 30
0.0
 11
44.95795
 21
57.931099
 31
0.0
  0
LINE
  5
D8E8
100
AcDbEntity
  8
CLIP
100
AcDbLine
 10
56.973555
 20
68.529971
 30
0.0
 11
54.377153
 21
70.030938
 31
0.0
  0
LINE
  5
D8E9
100
AcDbEntity
  8
CLIP
100
AcDbLine
 10
57.008155
 20
68.549947
 30
0.0
 11
54.411753
 21
70.050915
 31
0.0
  0
LINE
  5
D8EC
100
AcDbEntity
  8
CLIP
100
AcDbLine
 10
54.080253
 20
65.234522
 30
0.0
 11
51.483851
 21
66.735489
 31
0.0
  0
LINE
  5
D8ED
100
AcDbEntity
  8
CLIP
100
AcDbLine
 10
56.95793
 20
66.89595
 30
0.0
 11
54.361528
 21
68.396917
 31
0.0
  0
LINE
  5
D8FC
100
AcDbEntity
  8
CLIP
100
AcDbLine
 10
54.377153
 20
68.42398
 30
0.0
 11
56.973555
 21
66.923013
 31
0.0
  0
ELLIPSE
  5
D8FD
100
AcDbEntity
  8
CLIP
100
AcDbEllipse
 10
56.72824
 20
67.916619
 30
0.0
 11
-0.0765465544619696
 21
0.132582521472475
 31
0.0
210
0.0
220
0.0
230
1.0
 40
0.57735
 41
0.0000000000000249
 42
6.283185307179625
  0
LINE
  5
D8FE
100
AcDbEntity
  8
CLIP
100
AcDbLine
 10
56.836493
 20
67.854119
 30
0.0
 11
56.619986
 21
67.979119
 31
0.0
  0
LINE
  5
D8FF
100
AcDbEntity
  8
CLIP
100
AcDbLine
 10
56.729469
 20
68.041613
 30
0.0
 11
56.72701
 21
67.791625
 31
0.0
  0
ELLIPSE
  5
D900
100
AcDbEntity
  8
CLIP
100
AcDbEllipse
 10
54.125432
 20
65.749246
 30
0.0
 11
-0.153093108923944
 21
-0.0000000000000025
 31
0.0
210
0.0
220
0.0
230
-1.0
 40
0.57735
 41
0.0000000000000286
 42
6.283185307179628
  0
LINE
  5
D901
100
AcDbEntity
  8
CLIP
100
AcDbLine
 10
54.233685
 20
65.686746
 30
0.0
 11
54.017178
 21
65.811746
 31
0.0
  0
LINE
  5
D902
100
AcDbEntity
  8
CLIP
100
AcDbLine
 10
54.017798
 20
65.685684
 30
0.0
 11
54.233065
 21
65.812808
 31
0.0
  0
LINE
  5
D903
100
AcDbEntity
  8
CLIP
100
AcDbLine
 10
54.007877
 20
67.702676
 30
0.0
 11
54.223143
 21
67.8298
 31
0.0
  0
LINE
  5
D904
100
AcDbEntity
  8
CLIP
100
AcDbLine
 10
54.223763
 20
67.703738
 30
0.0
 11
54.007256
 21
67.828738
 31
0.0
  0
ELLIPSE
  5
D905
100
AcDbEntity
  8
CLIP
100
AcDbEllipse
 10
54.11551
 20
67.766238
 30
0.0
 11
-0.153093108923944
 21
-0.0000000000000026
 31
0.0
210
0.0
220
0.0
230
-1.0
 40
0.57735
 41
0.0000000000000298
 42
6.28318530717963
  0
LINE
  5
D90C
100
AcDbEntity
  8
CLIP
100
AcDbLine
 10
45.239369
 20
60.640176
 30
0.0
 11
45.454635
 21
60.7673
 31
0.0
  0
LINE
  5
D90D
100
AcDbEntity
  8
CLIP
100
AcDbLine
 10
45.455256
 20
60.641238
 30
0.0
 11
45.238749
 21
60.766238
 31
0.0
  0
ELLIPSE
  5
D90E
100
AcDbEntity
  8
CLIP
100
AcDbEllipse
 10
45.347002
 20
60.703738
 30
0.0
 11
-0.153093108923944
 21
-0.0000000000000026
 31
0.0
210
0.0
220
0.0
230
-1.0
 40
0.57735
 41
0.0000000000000298
 42
6.28318530717963
  0
LINE
  5
D91E
100
AcDbEntity
  8
CLIP
100
AcDbLine
 10
46.457372
 20
60.83345
 30
0.0
 11
44.83295
 21
61.772521
 31
0.0
  0
LINE
  5
D93F
100
AcDbEntity
  8
CLIP
100
AcDbLine
 10
54.672659
 20
69.229113
 30
0.0
 11
54.6702
 21
68.979125
 31
0.0
  0
LINE
  5
D940
100
AcDbEntity
  8
CLIP
100
AcDbLine
 10
54.779683
 20
69.041619
 30
0.0
 11
54.563176
 21
69.166619
 31
0.0
  0
ELLIPSE
  5
D941
100
AcDbEntity
  8
CLIP
100
AcDbEllipse
 10
54.671429
 20
69.104119
 30
0.0
 11
-0.0765465544619696
 21
0.132582521472475
 31
0.0
210
0.0
220
0.0
230
1.0
 40
0.57735
 41
0.0000000000000249
 42
6.283185307179625
  0
ELLIPSE
  5
D948
100
AcDbEntity
  8
CLIP
100
AcDbEllipse
 10
55.84756
 20
66.766238
 30
0.0
 11
-0.153093108923944
 21
-0.0000000000000026
 31
0.0
210
0.0
220
0.0
230
-1.0
 40
0.57735
 41
0.0000000000000298
 42
6.28318530717963
  0
LINE
  5
D949
100
AcDbEntity
  8
CLIP
100
AcDbLine
 10
55.955814
 20
66.703738
 30
0.0
 11
55.739307
 21
66.828738
 31
0.0
  0
LINE
  5
D94A
100
AcDbEntity
  8
CLIP
100
AcDbLine
 10
55.739927
 20
66.702676
 30
0.0
 11
55.955193
 21
66.8298
 31
0.0
  0
ELLIPSE
  5
D94B
100
AcDbEntity
  8
CLIP
100
AcDbEllipse
 10
52.393381
 20
66.749246
 30
0.0
 11
-0.153093108923944
 21
-0.0000000000000026
 31
0.0
210
0.0
220
0.0
230
-1.0
 40
0.57735
 41
0.0000000000000298
 42
6.28318530717963
  0
LINE
  5
D94C
100
AcDbEntity
  8
CLIP
100
AcDbLine
 10
52.501634
 20
66.686746
 30
0.0
 11
52.285128
 21
66.811746
 31
0.0
  0
LINE
  5
D94D
100
AcDbEntity
  8
CLIP
100
AcDbLine
 10
52.285748
 20
66.685684
 30
0.0
 11
52.501014
 21
66.812808
 31
0.0
  0
POLYLINE
  5
D98B
100
AcDbEntity
  8
TRACK
100
AcDb2dPolyline
 66
     1
 10
0.0
 20
0.0
 30
0.0
  0
VERTEX
  5
D98C
100
AcDbEntity
  8
TRACK
100
AcDbVertex
100
AcDb2dVertex
 10
54.09027
 20
68.459448
 30
0.0
 42
-0.57735
  0
VERTEX
  5
D98D
100
AcDbEntity
  8
TRACK
100
AcDbVertex
100
AcDb2dVertex
 10
54.189045
 20
68.516476
 30
0.0
  0
VERTEX
  5
D98E
100
AcDbEntity
  8
TRACK
100
AcDbVertex
100
AcDb2dVertex
 10
54.373804
 20
68.409805
 30
0.0
 42
-0.267949
  0
SEQEND
  5
D98F
100
AcDbEntity
  8
TRACK
  0
POLYLINE
  5
D990
100
AcDbEntity
  8
TRACK
100
AcDb2dPolyline
 66
     1
 10
0.0
 20
0.0
 30
0.0
  0
VERTEX
  5
D991
100
AcDbEntity
  8
TRACK
100
AcDbVertex
100
AcDb2dVertex
 10
57.001007
 20
66.892989
 30
0.0
  0
VERTEX
  5
D992
100
AcDbEntity
  8
TRACK
100
AcDbVertex
100
AcDb2dVertex
 10
57.265887
 20
66.740061
 30
0.0
 42
-0.267949
  0
VERTEX
  5
D993
100
AcDbEntity
  8
TRACK
100
AcDbVertex
100
AcDb2dVertex
 10
57.298812
 20
66.683033
 30
0.0
  0
VERTEX
  5
D994
100
AcDbEntity
  8
TRACK
100
AcDbVertex
100
AcDb2dVertex
 10
57.298812
 20
65.056099
 30
0.0
  0
SEQEND
  5
D995
100
AcDbEntity
  8
TRACK
  0
LINE
  5
D9A8
100
AcDbEntity
  8
CLIP
100
AcDbLine
 10
54.080253
 20
65.234522
 30
0.0
 11
54.080253
 21
65.19457
 31
0.0
  0
POLYLINE
  5
D9BE
100
AcDbEntity
  8
CLIP
100
AcDb2dPolyline
 66
     1
 10
0.0
 20
0.0
 30
0.0
  0
VERTEX
  5
D9BF
100
AcDbEntity
  8
CLIP
100
AcDbVertex
100
AcDb2dVertex
 10
54.080253
 20
65.234522
 30
0.0
  0
VERTEX
  5
D9C0
100
AcDbEntity
  8
CLIP
100
AcDbVertex
100
AcDb2dVertex
 10
56.95793
 20
66.89595
 30
0.0
 42
0.267949
  0
VERTEX
  5
D9C1
100
AcDbEntity
  8
CLIP
100
AcDbVertex
100
AcDb2dVertex
 10
56.973555
 20
66.923013
 30
0.0
  0
VERTEX
  5
D9C2
100
AcDbEntity
  8
CLIP
100
AcDbVertex
100
AcDb2dVertex
 10
56.973555
 20
68.529971
 30
0.0
  0
VERTEX
  5
D9C3
100
AcDbEntity
  8
CLIP
100
AcDbVertex
100
AcDb2dVertex
 10
57.008155
 20
68.549947
 30
0.0
  0
VERTEX
  5
D9C4
100
AcDbEntity
  8
CLIP
100
AcDbVertex
100
AcDb2dVertex
 10
57.008155
 20
66.923013
 30
0.0
 42
-0.267949
  0
VERTEX
  5
D9C5
100
AcDbEntity
  8
CLIP
100
AcDbVertex
100
AcDb2dVertex
 10
56.97523
 20
66.865986
 30
0.0
  0
VERTEX
  5
D9C6
100
AcDbEntity
  8
CLIP
100
AcDbVertex
100
AcDb2dVertex
 10
54.080253
 20
65.19457
 30
0.0
 42
-0.57735
  0
SEQEND
  5
D9C7
100
AcDbEntity
  8
CLIP
  0
POLYLINE
  5
D9CE
100
AcDbEntity
  8
CLIP
100
AcDb2dPolyline
 66
     1
 10
0.0
 20
0.0
 30
0.0
  0
VERTEX
  5
D9CF
100
AcDbEntity
  8
CLIP
100
AcDbVertex
100
AcDb2dVertex
 10
51.483851
 20
66.735489
 30
0.0
  0
VERTEX
  5
D9D0
100
AcDbEntity
  8
CLIP
100
AcDbVertex
100
AcDb2dVertex
 10
54.361528
 20
68.396917
 30
0.0
 42
0.267949
  0
VERTEX
  5
D9D1
100
AcDbEntity
  8
CLIP
100
AcDbVertex
100
AcDb2dVertex
 10
54.377153
 20
68.42398
 30
0.0
  0
VERTEX
  5
D9D2
100
AcDbEntity
  8
CLIP
100
AcDbVertex
100
AcDb2dVertex
 10
54.377153
 20
70.030938
 30
0.0
  0
VERTEX
  5
D9D3
100
AcDbEntity
  8
CLIP
100
AcDbVertex
100
AcDb2dVertex
 10
54.411753
 20
70.050915
 30
0.0
  0
SEQEND
  5
D9D4
100
AcDbEntity
  8
CLIP
  0
LINE
  5
D9D5
100
AcDbEntity
  8
CLIP
100
AcDbLine
 10
51.483851
 20
66.735489
 30
0.0
 11
51.483851
 21
66.695537
 31
0.0
  0
LINE
  5
D9D6
100
AcDbEntity
  8
CLIP
100
AcDbLine
 10
54.080253
 20
65.19457
 30
0.0
 11
51.483851
 21
66.695537
 31
0.0
  0
POLYLINE
  5
D9D7
100
AcDbEntity
  8
TRACK
100
AcDb2dPolyline
 66
     1
 10
0.0
 20
0.0
 30
0.0
  0
VERTEX
  5
D9D8
100
AcDbEntity
  8
TRACK
100
AcDbVertex
100
AcDb2dVertex
 10
44.92335
 20
57.951075
 30
0.0
  0
VERTEX
  5
D9D9
100
AcDbEntity
  8
TRACK
100
AcDbVertex
100
AcDb2dVertex
 10
44.92335
 20
59.558033
 30
0.0
 42
0.267949
  0
VERTEX
  5
D9DA
100
AcDbEntity
  8
TRACK
100
AcDbVertex
100
AcDb2dVertex
 10
44.907725
 20
59.585096
 30
0.0
  0
VERTEX
  5
D9DB
100
AcDbEntity
  8
TRACK
100
AcDbVertex
100
AcDb2dVertex
 10
44.83295
 20
59.628268
 30
0.0
 42
0.57735
  0
SEQEND
  5
D9DC
100
AcDbEntity
  8
TRACK
  0
POLYLINE
  5
D9DD
100
AcDbEntity
  8
TRACK
100
AcDb2dPolyline
 66
     1
 10
0.0
 20
0.0
 30
0.0
  0
VERTEX
  5
D9DE
100
AcDbEntity
  8
TRACK
100
AcDbVertex
100
AcDb2dVertex
 10
44.83295
 20
59.66822
 30
0.0
  0
VERTEX
  5
D9DF
100
AcDbEntity
  8
TRACK
100
AcDbVertex
100
AcDb2dVertex
 10
44.925025
 20
59.615061
 30
0.0
 42
-0.267949
  0
VERTEX
  5
D9E0
100
AcDbEntity
  8
TRACK
100
AcDbVertex
100
AcDb2dVertex
 10
44.95795
 20
59.558033
 30
0.0
  0
VERTEX
  5
D9E1
100
AcDbEntity
  8
TRACK
100
AcDbVertex
100
AcDb2dVertex
 10
44.95795
 20
57.931099
 30
0.0
  0
VERTEX
  5
D9E2
100
AcDbEntity
  8
TRACK
100
AcDbVertex
100
AcDb2dVertex
 10
44.92335
 20
57.951075
 30
0.0
  0
SEQEND
  5
D9E3
100
AcDbEntity
  8
TRACK
  0
LINE
  5
D9E4
100
AcDbEntity
  8
STUD
100
AcDbLine
 10
54.330223
 20
63.342183
 30
0.0
 11
54.330223
 21
59.795262
 31
0.0
  0
ELLIPSE
  5
D9E6
100
AcDbEntity
  8
BLACK_IRON
100
AcDbEllipse
 10
49.557035
 20
64.065768
 30
0.0
 11
-0.8930431355211679
 21
0.0
 31
0.0
210
0.0
220
0.0
230
1.0
 40
0.57735
 41
0.0
 42
6.2831853071796
  0
ELLIPSE
  5
D9E7
100
AcDbEntity
  8
CLIP
100
AcDbEllipse
 10
49.557035
 20
64.065768
 30
0.0
 11
-1.071651762625401
 21
0.0
 31
0.0
210
0.0
220
0.0
230
1.0
 40
0.57735
 41
-0.5856855434571528
 42
3.78694552391614
  0
LINE
  5
D9E9
100
AcDbEntity
  8
CLIP
100
AcDbLine
 10
49.124022
 20
62.315768
 30
0.0
 11
46.914832
 21
63.591245
 31
0.0
  0
LINE
  5
D9EB
100
AcDbEntity
  8
CLIP
100
AcDbLine
 10
49.124022
 20
62.315768
 30
0.0
 11
52.588124
 21
64.315768
 31
0.0
  0
LINE
  5
D9ED
100
AcDbEntity
  8
CLIP
100
AcDbLine
 10
49.124022
 20
62.355721
 30
0.0
 11
49.124022
 21
62.315768
 31
0.0
  0
LINE
  5
D9EE
100
AcDbEntity
  8
CLIP
100
AcDbLine
 10
49.124022
 20
62.355721
 30
0.0
 11
46.914832
 21
63.631198
 31
0.0
  0
LINE
  5
D9EF
100
AcDbEntity
  8
CLIP
100
AcDbLine
 10
49.124022
 20
62.355721
 30
0.0
 11
52.588124
 21
64.355721
 31
0.0
  0
LINE
  5
D9F0
100
AcDbEntity
  8
CLIP
100
AcDbLine
 10
52.588124
 20
64.355721
 30
0.0
 11
50.422238
 21
65.606196
 31
0.0
  0
LINE
  5
D9F1
100
AcDbEntity
  8
CLIP
100
AcDbLine
 10
46.914832
 20
64.080245
 30
0.0
 11
48.663992
 21
65.090122
 31
0.0
  0
LINE
  5
D9F2
100
AcDbEntity
  8
CLIP
100
AcDbLine
 10
52.588124
 20
64.355721
 30
0.0
 11
52.588124
 21
64.315768
 31
0.0
  0
ELLIPSE
  5
D9F4
100
AcDbEntity
  8
CLIP
100
AcDbEllipse
 10
49.557035
 20
64.019157
 30
0.0
 11
-1.071651762625401
 21
0.0
 31
0.0
210
0.0
220
0.0
230
1.0
 40
0.57735
 41
-3.10391603145314
 42
-2.49568168086993
  0
LINE
  5
D9F8
100
AcDbEntity
  8
CLIP
100
AcDbLine
 10
49.038152
 20
62.685684
 30
0.0
 11
49.253419
 21
62.812808
 31
0.0
  0
LINE
  5
D9F9
100
AcDbEntity
  8
CLIP
100
AcDbLine
 10
49.254039
 20
62.686746
 30
0.0
 11
49.037532
 21
62.811746
 31
0.0
  0
ELLIPSE
  5
D9FA
100
AcDbEntity
  8
CLIP
100
AcDbEllipse
 10
49.145785
 20
62.749246
 30
0.0
 11
-0.153093108923944
 21
-0.0000000000000025
 31
0.0
210
0.0
220
0.0
230
-1.0
 40
0.57735
 41
0.0000000000000286
 42
6.283185307179628
  0
LINE
  5
D9FB
100
AcDbEntity
  8
CLIP
100
AcDbLine
 10
47.089595
 20
63.810684
 30
0.0
 11
47.304861
 21
63.937808
 31
0.0
  0
LINE
  5
D9FC
100
AcDbEntity
  8
CLIP
100
AcDbLine
 10
47.305481
 20
63.811746
 30
0.0
 11
47.088975
 21
63.936746
 31
0.0
  0
ELLIPSE
  5
D9FD
100
AcDbEntity
  8
CLIP
100
AcDbEllipse
 10
47.197228
 20
63.874246
 30
0.0
 11
-0.153093108923944
 21
-0.0000000000000026
 31
0.0
210
0.0
220
0.0
230
-1.0
 40
0.57735
 41
0.0000000000000298
 42
6.28318530717963
  0
LINE
  5
D9FE
100
AcDbEntity
  8
CLIP
100
AcDbLine
 10
51.842813
 20
64.327676
 30
0.0
 11
52.058079
 21
64.4548
 31
0.0
  0
LINE
  5
D9FF
100
AcDbEntity
  8
CLIP
100
AcDbLine
 10
52.058699
 20
64.328738
 30
0.0
 11
51.842193
 21
64.453738
 31
0.0
  0
ELLIPSE
  5
DA00
100
AcDbEntity
  8
CLIP
100
AcDbEllipse
 10
51.950446
 20
64.391238
 30
0.0
 11
-0.153093108923944
 21
-0.0000000000000026
 31
0.0
210
0.0
220
0.0
230
-1.0
 40
0.57735
 41
0.0000000000000298
 42
6.28318530717963
  0
ELLIPSE
  5
DA01
100
AcDbEntity
  8
CLIP
100
AcDbEllipse
 10
56.720985
 20
57.446581
 30
0.0
 11
-0.0765465544619698
 21
0.1325825214724749
 31
0.0
210
0.0
220
0.0
230
1.0
 40
0.57735
 41
0.0000000000000214
 42
6.283185307179621
  0
LINE
  5
DA02
100
AcDbEntity
  8
CLIP
100
AcDbLine
 10
56.829238
 20
57.384081
 30
0.0
 11
56.612731
 21
57.509081
 31
0.0
  0
LINE
  5
DA03
100
AcDbEntity
  8
CLIP
100
AcDbLine
 10
56.722214
 20
57.571575
 30
0.0
 11
56.719755
 21
57.321587
 31
0.0
  0
ELLIPSE
  5
DA04
100
AcDbEntity
  8
CLIP
100
AcDbEllipse
 10
54.792104
 20
61.821484
 30
0.0
 11
-0.0765465544619698
 21
0.1325825214724749
 31
0.0
210
0.0
220
0.0
230
1.0
 40
0.57735
 41
0.0000000000000214
 42
6.283185307179621
  0
LINE
  5
DA05
100
AcDbEntity
  8
CLIP
100
AcDbLine
 10
54.900357
 20
61.758984
 30
0.0
 11
54.68385
 21
61.883984
 31
0.0
  0
LINE
  5
DA06
100
AcDbEntity
  8
CLIP
100
AcDbLine
 10
54.793333
 20
61.946478
 30
0.0
 11
54.790874
 21
61.69649
 31
0.0
  0
ELLIPSE
  5
DA07
100
AcDbEntity
  8
CLIP
100
AcDbEllipse
 10
56.740661
 20
60.696484
 30
0.0
 11
-0.07654655446197
 21
0.1325825214724749
 31
0.0
210
0.0
220
0.0
230
1.0
 40
0.57735
 41
0.0000000000000201
 42
6.28318530717962
  0
LINE
  5
DA08
100
AcDbEntity
  8
CLIP
100
AcDbLine
 10
56.848914
 20
60.633984
 30
0.0
 11
56.632408
 21
60.758984
 31
0.0
  0
LINE
  5
DA09
100
AcDbEntity
  8
CLIP
100
AcDbLine
 10
56.741891
 20
60.821478
 30
0.0
 11
56.739431
 21
60.57149
 31
0.0
  0
ELLIPSE
  5
DA0D
100
AcDbEntity
  8
CLIP
100
AcDbEllipse
 10
55.84651
 20
59.705377
 30
0.0
 11
-0.5358258811549525
 21
0.9280776501707387
 31
0.0
210
0.0
220
0.0
230
-1.0
 40
0.57735
 41
-3.103916031453117
 42
-2.555907110132694
  0
LINE
  5
DA0E
100
AcDbEntity
  8
CLIP
100
AcDbLine
 10
54.472506
 20
62.412095
 30
0.0
 11
54.507106
 21
62.432071
 31
0.0
  0
LINE
  5
DA0F
100
AcDbEntity
  8
CLIP
100
AcDbLine
 10
57.070582
 20
56.912095
 30
0.0
 11
57.105182
 21
56.932071
 31
0.0
  0
LINE
  5
DA10
100
AcDbEntity
  8
CLIP
100
AcDbLine
 10
54.472506
 20
62.412095
 30
0.0
 11
54.472506
 21
59.878817
 31
0.0
  0
LINE
  5
DA11
100
AcDbEntity
  8
CLIP
100
AcDbLine
 10
57.070582
 20
56.912095
 30
0.0
 11
54.932536
 21
58.146496
 31
0.0
  0
LINE
  5
DA12
100
AcDbEntity
  8
CLIP
100
AcDbLine
 10
57.070582
 20
60.912095
 30
0.0
 11
57.070582
 21
56.912095
 31
0.0
  0
LINE
  5
DA13
100
AcDbEntity
  8
CLIP
100
AcDbLine
 10
57.070582
 20
60.912095
 30
0.0
 11
54.472506
 21
62.412095
 31
0.0
  0
LINE
  5
DA14
100
AcDbEntity
  8
CLIP
100
AcDbLine
 10
57.070582
 20
60.912095
 30
0.0
 11
57.105182
 21
60.932071
 31
0.0
  0
LINE
  5
DA15
100
AcDbEntity
  8
CLIP
100
AcDbLine
 10
57.105182
 20
60.932071
 30
0.0
 11
57.105182
 21
56.932071
 31
0.0
  0
LINE
  5
DA17
100
AcDbEntity
  8
CLIP
100
AcDbLine
 10
57.105182
 20
60.932071
 30
0.0
 11
54.507106
 21
62.432071
 31
0.0
  0
ELLIPSE
  5
DA18
100
AcDbEntity
  8
CLIP
100
AcDbEllipse
 10
55.806144
 20
59.682071
 30
0.0
 11
-0.5358258811549525
 21
0.9280776501707387
 31
0.0
210
0.0
220
0.0
230
-1.0
 40
0.57735
 41
-0.6666828825524443
 42
3.727278197047058
  0
ELLIPSE
  5
DA19
100
AcDbEntity
  8
BLACK_IRON
100
AcDbEllipse
 10
55.806144
 20
59.682071
 30
0.0
 11
-0.4465215676291271
 21
0.7733980418089491
 31
0.0
210
0.0
220
0.0
230
-1.0
 40
0.57735
 41
-0.0000000000001441
 42
6.283185307179456
  0
LINE
  5
DA40
100
AcDbEntity
  8
BLACK_IRON
100
AcDbLine
 10
48.663992
 20
57.125426
 30
0.0
 11
48.663992
 21
60.070783
 31
0.0
  0
LINE
  5
DA41
100
AcDbEntity
  8
BLACK_IRON
100
AcDbLine
 10
50.450078
 20
69.190768
 30
0.0
 11
50.407349
 21
63.689204
 31
0.0
  0
LINE
  5
DA42
100
AcDbEntity
  8
BLACK_IRON
100
AcDbLine
 10
50.548999
 20
57.574759
 30
0.0
 11
55.709979
 21
60.605517
 31
0.0
  0
LINE
  5
DA43
100
AcDbEntity
  8
BLACK_IRON
100
AcDbLine
 10
61.881831
 20
62.158673
 30
0.0
 11
58.689356
 21
60.315497
 31
0.0
  0
ARC
  5
DA44
100
AcDbEntity
  8
BLACK_IRON
100
AcDbCircle
 10
50.163992
 20
57.125426
 30
0.0
 40
1.5
100
AcDbArc
 50
180.0
 51
300.0
  0
ELLIPSE
  5
DA53
100
AcDbEntity
  8
BLACK_IRON
100
AcDbEllipse
 10
61.435309
 20
62.932071
 30
0.0
 11
-0.4465215676291271
 21
0.7733980418089491
 31
0.0
210
0.0
220
0.0
230
-1.0
 40
0.57735
 41
-0.0085321726526167
 42
3.141592653589772
  0
ELLIPSE
  5
DA54
100
AcDbEntity
  8
BLACK_IRON
100
AcDbEllipse
 10
49.557035
 20
69.190768
 30
0.0
 11
-0.8930431355211679
 21
0.0
 31
0.0
210
0.0
220
0.0
230
1.0
 40
0.57735
 41
0.0
 42
6.2831853071796
  0
LINE
  5
DA55
100
AcDbEntity
  8
BLACK_IRON
100
AcDbLine
 10
58.689356
 20
62.35514
 30
0.0
 11
60.988787
 21
63.705469
 31
0.0
  0
LINE
  5
DA56
100
AcDbEntity
  8
BLACK_IRON
100
AcDbLine
 10
56.548854
 20
59.079678
 30
0.0
 11
50.913992
 21
55.826388
 31
0.0
  0
LINE
  5
DA57
100
AcDbEntity
  8
BLACK_IRON
100
AcDbLine
 10
48.663992
 20
63.723759
 30
0.0
 11
48.663992
 21
69.190768
 31
0.0
  0
LINE
  5
DA58
100
AcDbEntity
  8
BLACK_IRON
100
AcDbLine
 10
50.386972
 20
61.065546
 30
0.0
 11
50.360705
 21
57.683518
 31
0.0
  0
LINE
  5
DA59
100
AcDbEntity
  8
CLIP
100
AcDbLine
 10
46.457372
 20
60.83345
 30
0.0
 11
46.457372
 21
60.793497
 31
0.0
  0
POLYLINE
  5
DA5A
100
AcDbEntity
  8
CLIP
100
AcDb2dPolyline
 66
     1
 10
0.0
 20
0.0
 30
0.0
  0
VERTEX
  5
DA5B
100
AcDbEntity
  8
CLIP
100
AcDbVertex
100
AcDb2dVertex
 10
44.83295
 20
59.89559
 30
0.0
  0
VERTEX
  5
DA5C
100
AcDbEntity
  8
CLIP
100
AcDbVertex
100
AcDb2dVertex
 10
46.457372
 20
60.83345
 30
0.0
 42
0.267949
  0
SEQEND
  5
DA5D
100
AcDbEntity
  8
CLIP
  0
POLYLINE
  5
DA5E
100
AcDbEntity
  8
CLIP
100
AcDb2dPolyline
 66
     1
 10
0.0
 20
0.0
 30
0.0
  0
VERTEX
  5
DA5F
100
AcDbEntity
  8
CLIP
100
AcDbVertex
100
AcDb2dVertex
 10
46.457372
 20
60.793497
 30
0.0
  0
VERTEX
  5
DA60
100
AcDbEntity
  8
CLIP
100
AcDbVertex
100
AcDb2dVertex
 10
44.83295
 20
59.855637
 30
0.0
 42
-0.57735
  0
SEQEND
  5
DA61
100
AcDbEntity
  8
CLIP
  0
ELLIPSE
  5
DA63
100
AcDbEntity
  8
TRACK
100
AcDbEllipse
 10
49.557035
 20
63.979204
 30
0.0
 11
-1.071651762625401
 21
0.0
 31
0.0
210
0.0
220
0.0
230
1.0
 40
0.57735
 41
-3.071581156179431
 42
-2.495203633035747
  0
LINE
  5
DA74
100
AcDbEntity
  8
CLIP
100
AcDbLine
 10
47.993974
 20
61.386919
 30
0.0
 11
44.917132
 21
63.163335
 31
0.0
  0
ELLIPSE
  5
DA76
100
AcDbEntity
  8
TRACK
100
AcDbEllipse
 10
46.455553
 20
62.275127
 30
0.0
 11
-0.6123724356957946
 21
0.0
 31
0.0
210
0.0
220
0.0
230
1.0
 40
0.57735
 41
-0.7227342478134796
 42
3.864326901403203
  0
ELLIPSE
  5
DA77
100
AcDbEntity
  8
TRACK
100
AcDbEllipse
 10
46.455553
 20
62.235174
 30
0.0
 11
-0.6123724356957946
 21
0.0
 31
0.0
210
0.0
220
0.0
230
1.0
 40
0.57735
 41
-3.085060984070262
 42
-2.418858405776473
  0
ELLIPSE
  5
DA78
100
AcDbEntity
  8
BLACK_IRON
100
AcDbEllipse
 10
46.455553
 20
62.275127
 30
0.0
 11
-0.4592793267718459
 21
0.0
 31
0.0
210
0.0
220
0.0
230
1.0
 40
0.57735
 41
0.0
 42
6.2831853071796
  0
ELLIPSE
  5
DA79
100
AcDbEntity
  8
STUD
100
AcDbEllipse
 10
41.980987
 20
52.539029
 30
0.0
 11
-0.306186217847909
 21
0.5303300858899098
 31
0.0
210
0.0
220
0.0
230
1.0
 40
0.57735
 41
2.41885840577636
 42
7.005919554993078
  0
ELLIPSE
  5
DA7A
100
AcDbEntity
  8
BLACK_IRON
100
AcDbEllipse
 10
41.980987
 20
52.539029
 30
0.0
 11
0.2296396633859231
 21
-0.3977475644174329
 31
0.0
210
0.0
220
0.0
230
1.0
 40
0.57735
 41
0.0000000000000351
 42
6.283185307179635
  0
ELLIPSE
  5
DA7B
100
AcDbEntity
  8
STUD
100
AcDbEllipse
 10
42.030004
 20
52.567329
 30
0.0
 11
-0.3061862178479006
 21
0.5303300858899052
 31
0.0
210
0.0
220
0.0
230
1.0
 40
0.57735
 41
0.080130210791532
 42
0.7227342478134198
  0
LINE
  5
DA86
100
AcDbEntity
  8
BLACK_IRON
100
AcDbLine
 10
38.841165
 20
50.195921
 30
0.0
 11
42.41315
 21
52.258208
 31
0.0
  0
LINE
  5
DA87
100
AcDbEntity
  8
BLACK_IRON
100
AcDbLine
 10
38.381886
 20
50.991416
 30
0.0
 11
41.953871
 21
53.053703
 31
0.0
  0
LINE
  5
DA88
100
AcDbEntity
  8
BLACK_IRON
100
AcDbLine
 10
45.996273
 20
67.400127
 30
0.0
 11
45.996273
 21
62.041273
 31
0.0
  0
LINE
  5
DA89
100
AcDbEntity
  8
BLACK_IRON
100
AcDbLine
 10
46.914832
 20
67.400127
 30
0.0
 11
46.914832
 21
62.041273
 31
0.0
  0
ELLIPSE
  5
DA8A
100
AcDbEntity
  8
BLACK_IRON
100
AcDbEllipse
 10
38.611525
 20
50.593669
 30
0.0
 11
0.2296396633859231
 21
-0.3977475644174329
 31
0.0
210
0.0
220
0.0
230
1.0
 40
0.57735
 41
-0.0000000000000247
 42
6.283185307179575
  0
ELLIPSE
  5
DA8B
100
AcDbEntity
  8
BLACK_IRON
100
AcDbEllipse
 10
46.455553
 20
67.400127
 30
0.0
 11
-0.4592793267718459
 21
0.0
 31
0.0
210
0.0
220
0.0
230
1.0
 40
0.57735
 41
0.0
 42
6.2831853071796
  0
ARC
  5
DA8E
100
AcDbEntity
  8
BLACK_IRON
100
AcDbCircle
 10
46.164832
 20
55.290268
 30
0.0
 40
0.75
100
AcDbArc
 50
300.0
 51
0.0
  0
ARC
  5
DA8F
100
AcDbEntity
  8
BLACK_IRON
100
AcDbCircle
 10
45.871273
 20
55.459754
 30
0.0
 40
0.125
100
AcDbArc
 50
300.0
 51
0.0
  0
ARC
  5
DA90
100
AcDbEntity
  8
BLACK_IRON
100
AcDbCircle
 10
50.485701
 20
57.682548
 30
0.0
 40
0.125
100
AcDbArc
 50
179.555011
 51
300.423358
  0
LINE
  5
E14F
100
AcDbEntity
  8
STUD
100
AcDbLine
 10
40.473816
 20
79.655986
 30
0.0
 11
40.473816
 21
52.199193
 31
0.0
  0
LINE
  5
E1C4
100
AcDbEntity
  8
STUD
100
AcDbLine
 10
44.83295
 20
78.655986
 30
0.0
 11
44.83295
 21
35.499065
 31
0.0
  0
LINE
  5
E394
100
AcDbEntity
  8
STUD
100
AcDbLine
 10
54.330223
 20
87.105848
 30
0.0
 11
54.330223
 21
68.463141
 31
0.0
  0
LINE
  5
E938
100
AcDbEntity
  8
BLACK_IRON
100
AcDbLine
 10
44.83295
 20
54.71594
 30
0.0
 11
45.933773
 21
55.351501
 31
0.0
  0
LINE
  5
E939
100
AcDbEntity
  8
BLACK_IRON
100
AcDbLine
 10
44.83295
 20
53.65528
 30
0.0
 11
46.539832
 21
54.640749
 31
0.0
  0
LINE
  5
E93A
100
AcDbEntity
  8
BLACK_IRON
100
AcDbLine
 10
45.996273
 20
58.530575
 30
0.0
 11
45.996273
 21
55.459754
 31
0.0
  0
LINE
  5
E93B
100
AcDbEntity
  8
BLACK_IRON
100
AcDbLine
 10
46.914832
 20
59.060905
 30
0.0
 11
46.914832
 21
55.290268
 31
0.0
  0
POLYLINE
  5
EE5B
100
AcDbEntity
  8
STEEL
100
AcDb2dPolyline
 66
     1
 10
0.0
 20
0.0
 30
0.0
  0
VERTEX
  5
EE5C
100
AcDbEntity
  8
STEEL
100
AcDbVertex
100
AcDb2dVertex
 10
452.58445
 20
375.152039
 30
0.0
  0
SEQEND
  5
EE5D
100
AcDbEntity
  8
STEEL
  0
INSERT
  5
EE5E
100
AcDbEntity
  8
0
100
AcDbBlockReference
  2
CEMCO_BLANK
 10
-458.830198
 20
325.6031
 30
0.0
 41
0.5
 42
0.5
 43
-0.5
210
0.0
220
0.0
230
-1.0
  0
POLYLINE
  5
F1C0
100
AcDbEntity
  8
TRACK
100
AcDb2dPolyline
 66
     1
 10
0.0
 20
0.0
 30
0.0
  0
VERTEX
  5
F1C1
100
AcDbEntity
  8
TRACK
100
AcDbVertex
100
AcDb2dVertex
 10
302.731286
 20
195.235897
 30
0.0
  0
SEQEND
  5
F1C2
100
AcDbEntity
  8
TRACK
  0
LINE
  5
1015F
100
AcDbEntity
  8
STUD
100
AcDbLine
 10
56.130903
 20
80.337707
 30
0.0
 11
56.130903
 21
77.087707
 31
0.0
  0
LINE
  5
10160
100
AcDbEntity
  8
STUD
100
AcDbLine
 10
56.096303
 20
80.357684
 30
0.0
 11
56.096303
 21
77.107684
 31
0.0
  0
LINE
  5
10161
100
AcDbEntity
  8
STUD
100
AcDbLine
 10
55.629814
 20
80.617855
 30
0.0
 11
55.629814
 21
77.360903
 31
0.0
  0
LINE
  5
10162
100
AcDbEntity
  8
STUD
100
AcDbLine
 10
55.657714
 20
80.608296
 30
0.0
 11
55.657714
 21
77.360903
 31
0.0
  0
INSERT
  5
101CE
100
AcDbEntity
  8
STUD
100
AcDbBlockReference
  2
STUD_TRIM
 10
40.473816
 20
79.655986
 30
0.0
  0
INSERT
  5
101CF
100
AcDbEntity
  8
STUD
100
AcDbBlockReference
  2
STUD_TRIM
 10
54.330223
 20
87.105848
 30
0.0
  0
LINE
  5
10E48
100
AcDbEntity
  8
TRACK
100
AcDbLine
 10
58.723956
 20
47.132494
 30
0.0
 11
64.809734
 21
50.64612
 31
0.0
  0
LINE
  5
10E49
100
AcDbEntity
  8
TRACK
100
AcDbLine
 10
64.809734
 20
49.039162
 30
0.0
 11
58.695049
 21
45.512068
 31
0.0
  0
POLYLINE
  5
10E62
100
AcDbEntity
  8
TRACK
100
AcDb2dPolyline
 66
     1
 10
0.0
 20
0.0
 30
0.0
  0
VERTEX
  5
10E63
100
AcDbEntity
  8
TRACK
100
AcDbVertex
100
AcDb2dVertex
 10
34.485875
 20
28.8603
 30
0.0
  0
VERTEX
  5
10E64
100
AcDbEntity
  8
TRACK
100
AcDbVertex
100
AcDb2dVertex
 10
35.29333
 20
29.325754
 30
0.0
  0
VERTEX
  5
10E65
100
AcDbEntity
  8
TRACK
100
AcDbVertex
100
AcDb2dVertex
 10
36.087312
 20
28.867348
 30
0.0
 42
0.57735
  0
VERTEX
  5
10E66
100
AcDbEntity
  8
TRACK
100
AcDbVertex
100
AcDb2dVertex
 10
36.134187
 20
28.894412
 30
0.0
  0
VERTEX
  5
10E67
100
AcDbEntity
  8
TRACK
100
AcDbVertex
100
AcDb2dVertex
 10
36.134187
 20
30.465285
 30
0.0
  0
VERTEX
  5
10E68
100
AcDbEntity
  8
TRACK
100
AcDbVertex
100
AcDb2dVertex
 10
36.168787
 20
30.445309
 30
0.0
  0
VERTEX
  5
10E69
100
AcDbEntity
  8
TRACK
100
AcDbVertex
100
AcDb2dVertex
 10
36.168787
 20
28.894412
 30
0.0
 42
-0.57735
  0
VERTEX
  5
10E6A
100
AcDbEntity
  8
TRACK
100
AcDbVertex
100
AcDb2dVertex
 10
36.070012
 20
28.837384
 30
0.0
  0
VERTEX
  5
10E6B
100
AcDbEntity
  8
TRACK
100
AcDbVertex
100
AcDb2dVertex
 10
35.29333
 20
29.285802
 30
0.0
  0
VERTEX
  5
10E6C
100
AcDbEntity
  8
TRACK
100
AcDbVertex
100
AcDb2dVertex
 10
34.485875
 20
28.819617
 30
0.0
  0
VERTEX
  5
10E6D
100
AcDbEntity
  8
TRACK
100
AcDbVertex
100
AcDb2dVertex
 10
34.485875
 20
28.8603
 30
0.0
  0
VERTEX
  5
10E6E
100
AcDbEntity
  8
TRACK
100
AcDbVertex
100
AcDb2dVertex
 10
34.624277
 20
30.648754
 30
0.0
  0
VERTEX
  5
10E6F
100
AcDbEntity
  8
TRACK
100
AcDbVertex
100
AcDb2dVertex
 10
34.624277
 20
30.689139
 30
0.0
  0
VERTEX
  5
10E70
100
AcDbEntity
  8
TRACK
100
AcDbVertex
100
AcDb2dVertex
 10
33.778452
 20
30.20037
 30
0.0
  0
VERTEX
  5
10E71
100
AcDbEntity
  8
TRACK
100
AcDbVertex
100
AcDb2dVertex
 10
33.01047
 20
30.643764
 30
0.0
 42
-0.267949
  0
VERTEX
  5
10E72
100
AcDbEntity
  8
TRACK
100
AcDbVertex
100
AcDb2dVertex
 10
32.994845
 20
30.670827
 30
0.0
  0
VERTEX
  5
10E73
100
AcDbEntity
  8
TRACK
100
AcDbVertex
100
AcDb2dVertex
 10
32.994845
 20
32.277785
 30
0.0
  0
VERTEX
  5
10E74
100
AcDbEntity
  8
TRACK
100
AcDbVertex
100
AcDb2dVertex
 10
32.960245
 20
32.297762
 30
0.0
  0
VERTEX
  5
10E75
100
AcDbEntity
  8
TRACK
100
AcDbVertex
100
AcDb2dVertex
 10
32.960245
 20
30.670827
 30
0.0
 42
0.267949
  0
VERTEX
  5
10E76
100
AcDbEntity
  8
TRACK
100
AcDbVertex
100
AcDb2dVertex
 10
32.99317
 20
30.6138
 30
0.0
  0
VERTEX
  5
10E77
100
AcDbEntity
  8
TRACK
100
AcDbVertex
100
AcDb2dVertex
 10
33.778452
 20
30.160417
 30
0.0
  0
VERTEX
  5
10E78
100
AcDbEntity
  8
TRACK
100
AcDbVertex
100
AcDb2dVertex
 10
34.624277
 20
30.648754
 30
0.0
  0
SEQEND
  5
10E79
100
AcDbEntity
  8
TRACK
  0
LINE
  5
10E7F
100
AcDbEntity
  8
TRACK
100
AcDbLine
 10
35.29333
 20
29.326485
 30
0.0
 11
35.29333
 21
29.285802
 31
0.0
  0
LINE
  5
10E80
100
AcDbEntity
  8
TRACK
100
AcDbLine
 10
33.778452
 20
30.160417
 30
0.0
 11
33.778452
 21
30.200802
 31
0.0
  0
LINE
  5
10E85
100
AcDbEntity
  8
TRACK
100
AcDbLine
 10
54.471923
 20
43.064858
 30
0.0
 11
44.83295
 21
37.501715
 31
0.0
  0
LINE
  5
10E87
100
AcDbEntity
  8
TRACK
100
AcDbLine
 10
40.613124
 20
35.066239
 30
0.0
 11
32.994845
 21
30.670827
 31
0.0
  0
LINE
  5
10E88
100
AcDbEntity
  8
TRACK
100
AcDbLine
 10
44.83295
 20
39.152471
 30
0.0
 11
54.330223
 21
44.635724
 31
0.0
  0
LINE
  5
10E89
100
AcDbEntity
  8
TRACK
100
AcDbLine
 10
40.473816
 20
36.601725
 30
0.0
 11
32.994845
 21
32.277785
 31
0.0
  0
LINE
  5
10E8A
100
AcDbEntity
  8
TRACK
100
AcDbLine
 10
40.644377
 20
35.048195
 30
0.0
 11
33.01047
 21
30.643764
 31
0.0
  0
POLYLINE
  5
10EBF
100
AcDbEntity
  8
TRACK
100
AcDb2dPolyline
 66
     1
 10
0.0
 20
0.0
 30
0.0
  0
VERTEX
  5
10EC0
100
AcDbEntity
  8
TRACK
100
AcDbVertex
100
AcDb2dVertex
 10
67.884901
 20
47.205718
 30
0.0
 42
0.57735
  0
VERTEX
  5
10EC1
100
AcDbEntity
  8
TRACK
100
AcDbVertex
100
AcDb2dVertex
 10
67.983676
 20
47.262746
 30
0.0
  0
VERTEX
  5
10EC2
100
AcDbEntity
  8
TRACK
100
AcDbVertex
100
AcDb2dVertex
 10
67.983676
 20
48.813643
 30
0.0
  0
VERTEX
  5
10EC3
100
AcDbEntity
  8
TRACK
100
AcDbVertex
100
AcDb2dVertex
 10
67.949076
 20
48.83362
 30
0.0
  0
SEQEND
  5
10EC4
100
AcDbEntity
  8
TRACK
  0
POLYLINE
  5
10EC9
100
AcDbEntity
  8
TRACK
100
AcDb2dPolyline
 66
     1
 10
0.0
 20
0.0
 30
0.0
  0
VERTEX
  5
10ECA
100
AcDbEntity
  8
TRACK
100
AcDbVertex
100
AcDb2dVertex
 10
64.775134
 20
50.666096
 30
0.0
  0
VERTEX
  5
10ECB
100
AcDbEntity
  8
TRACK
100
AcDbVertex
100
AcDb2dVertex
 10
64.809734
 20
50.64612
 30
0.0
  0
VERTEX
  5
10ECC
100
AcDbEntity
  8
TRACK
100
AcDbVertex
100
AcDb2dVertex
 10
64.809734
 20
49.039162
 30
0.0
 42
0.267949
  0
VERTEX
  5
10ECD
100
AcDbEntity
  8
TRACK
100
AcDbVertex
100
AcDb2dVertex
 10
64.825359
 20
49.012099
 30
0.0
  0
VERTEX
  5
10ECE
100
AcDbEntity
  8
TRACK
100
AcDbVertex
100
AcDb2dVertex
 10
65.593341
 20
48.568704
 30
0.0
  0
VERTEX
  5
10ECF
100
AcDbEntity
  8
TRACK
100
AcDbVertex
100
AcDb2dVertex
 10
66.439166
 20
49.057474
 30
0.0
  0
VERTEX
  5
10ED0
100
AcDbEntity
  8
TRACK
100
AcDbVertex
100
AcDb2dVertex
 10
66.439166
 20
49.017089
 30
0.0
  0
VERTEX
  5
10ED1
100
AcDbEntity
  8
TRACK
100
AcDbVertex
100
AcDb2dVertex
 10
66.353687
 20
47.912521
 30
0.0
  0
SEQEND
  5
10ED2
100
AcDbEntity
  8
TRACK
  0
LEADER
  5
10F13
100
AcDbEntity
  8
D-TEXT
100
AcDbLeader
  3
LEADER
 72
     1
 73
     0
 40
3.0
 41
13.965517
 76
     3
 10
41.375
 20
53.0
 30
0.0
 10
34.168821
 20
56.2025
 30
0.0
 10
31.472767
 20
56.2025
 30
0.0
 77
   256
  0
MTEXT
  5
10F14
100
AcDbEntity
  8
D-TEXT
100
AcDbMText
 10
30.472767
 20
56.2025
 30
0.0
 40
1.5
 41
0.0
 71
     6
 72
     1
  1
{ALL OPENINGS}\P{CENTERED IN WEB}
  7
ARCH
  0
LEADER
  5
10F16
100
AcDbEntity
  8
D-TEXT
100
AcDbLeader
  3
LEADER
 72
     1
 73
     0
 40
1.0
 41
3.517241
 76
     4
 10
55.659729
 20
67.646434
 30
0.0
 10
50.628942
 20
79.747622
 30
0.0
 10
48.642375
 20
82.79714
 30
0.0
 10
42.895523
 20
83.222655
 30
0.0
 77
   256
  0
MTEXT
  5
10F17
100
AcDbEntity
  8
D-TEXT
100
AcDbMText
 10
41.895523
 20
83.222655
 30
0.0
 40
1.5
 41
0.0
 71
     6
 72
     1
  1
CLIP
  7
ARCH
  0
LEADER
  5
10F19
100
AcDbEntity
  8
D-TEXT
100
AcDbLeader
  3
LEADER
 72
     1
 76
     5
 10
46.544901
 20
61.925357
 30
0.0
 10
48.0
 20
58.379299
 30
0.0
 10
45.279712
 20
56.75
 30
0.0
 10
42.25947
 20
56.177853
 30
0.0
 10
31.472767
 20
56.2025
 30
0.0
 77
   256
  0
LINE
  5
10F1A
100
AcDbEntity
  8
STUD
100
AcDbLine
 10
40.473816
 20
51.138533
 30
0.0
 11
40.473816
 21
35.146668
 31
0.0
  0
LINE
  5
10F1B
100
AcDbEntity
  8
STUD
100
AcDbLine
 10
54.330223
 20
57.79875
 30
0.0
 11
54.330223
 21
43.146668
 31
0.0
  0
ELLIPSE
  5
10F1C
100
AcDbEntity
  8
CLIP
100
AcDbEllipse
 10
55.84651
 20
59.705377
 30
0.0
 11
-0.5358258811549525
 21
0.9280776501707387
 31
0.0
210
0.0
220
0.0
230
-1.0
 40
0.57735
 41
-0.6661601484735572
 42
-0.0376766221366096
  0
ELLIPSE
  5
10F1D
100
AcDbEntity
  8
STUD
100
AcDbEllipse
 10
42.030004
 20
52.567329
 30
0.0
 11
-0.3061862178479797
 21
0.5303300858898718
 31
0.0
210
0.0
220
0.0
230
1.0
 40
0.57735
 41
2.418858405776328
 42
3.06146244279791
  0
ELLIPSE
  5
10F1E
100
AcDbEntity
  8
CLIP
100
AcDbEllipse
 10
49.557035
 20
64.019157
 30
0.0
 11
-1.071651762625401
 21
0.0
 31
0.0
210
0.0
220
0.0
230
1.0
 40
0.57735
 41
-0.5856855434571528
 42
-0.0376766221366065
  0
ELLIPSE
  5
10F1F
100
AcDbEntity
  8
TRACK
100
AcDbEllipse
 10
49.557035
 20
63.979204
 30
0.0
 11
-1.071651762625401
 21
0.0
 31
0.0
210
0.0
220
0.0
230
1.0
 40
0.57735
 41
-0.5856855434571528
 42
-0.0700114974105459
  0
ELLIPSE
  5
10F20
100
AcDbEntity
  8
TRACK
100
AcDbEllipse
 10
46.455553
 20
62.235174
 30
0.0
 11
-0.6123724356957946
 21
0.0
 31
0.0
210
0.0
220
0.0
230
1.0
 40
0.57735
 41
-0.7227342478134796
 42
-0.0565316695203757
  0
LINE
  5
10F21
100
AcDbEntity
  8
TRACK
100
AcDbLine
 10
45.996273
 20
63.786377
 30
0.0
 11
44.83295
 21
63.114732
 31
0.0
  0
LINE
  5
10F22
100
AcDbEntity
  8
TRACK
100
AcDbLine
 10
48.663992
 20
65.326585
 30
0.0
 11
46.914832
 21
64.316708
 31
0.0
  0
DIMENSION
  5
10F33
100
AcDbEntity
  8
D-TEXT
100
AcDbDimension
  2
*D3
 10
42.755506
 20
47.375
 30
0.0
 11
50.772748
 21
47.375
 31
0.0
 12
0.0
 22
-2.75
 32
0.0
 70
   160
  1
{1-1/2"}
  3
LEADER
100
AcDbAlignedDimension
 13
41.456468
 23
48.376984
 33
0.0
 14
42.755506
 24
47.915659
 34
0.0
100
AcDbRotatedDimension
  0
LINE
  5
10FAC
100
AcDbEntity
  8
D-TEXT
100
AcDbLine
 10
42.755506
 20
48.415659
 30
0.0
 11
42.755506
 21
52.375
 31
0.0
  0
LINE
  5
10FAD
100
AcDbEntity
  8
D-TEXT
100
AcDbLine
 10
41.456468
 20
48.876984
 30
0.0
 11
41.456468
 21
51.625
 31
0.0
  0
LEADER
  5
10FDB
100
AcDbEntity
  8
D-TEXT
100
AcDbLeader
  3
LEADER
 73
     0
 40
4.333333
 41
24.413793
 76
     2
 10
57.105182
 20
58.932071
 30
0.0
 10
69.25
 20
58.932071
 30
0.0
 77
   256
  0
LEADER
  5
10FDE
100
AcDbEntity
  8
D-TEXT
100
AcDbLeader
  3
LEADER
 72
     1
 76
     5
 10
52.375
 20
64.0
 30
0.0
 10
59.5
 20
61.625
 30
0.0
 10
63.875
 20
61.125
 30
0.0
 10
66.125
 20
60.125
 30
0.0
 10
69.25
 20
58.932071
 30
0.0
 77
   256
  0
LEADER
  5
10FDF
100
AcDbEntity
  8
D-TEXT
100
AcDbLeader
  3
LEADER
 72
     1
 73
     0
 40
6.333333
 41
31.206897
 76
     3
 10
45.895888
 20
62.378673
 30
0.0
 10
41.375
 20
63.125
 30
0.0
 10
36.625
 20
63.125
 30
0.0
 77
   256
  0
MTEXT
  5
10FE1
100
AcDbEntity
  8
D-TEXT
100
AcDbMText
 10
1.75
 20
27.125
 30
0.0
 40
1.5
 41
92.0
 71
     1
 72
     1
  1
{NOTES:}\P{1. FLANGES SHALL NOT BE NOTCHED OR CUT.}\P{2. CAPACITY VERIFICATION BY DESIGN IS REQ. }{FOR ANY OPENINGS LOCATED AT CONCENTRATED }{LOADS AND BEARING ENDS.}\P{3. APPLICABLE TO TRACK, STUDS, JOISTS & RAFTERS}
  7
ARCH
  0
TEXT
  5
11427
100
AcDbEntity
  8
LINK
 62
     1
100
AcDbText
 10
-21.82204
 20
23.008004
 30
0.0
 40
1.5
  1
drawing list
  7
BLOCK
 72
     1
 11
-14.04
 21
23.008004
 31
0.0
100
AcDbText
1001
PE_URL
1000
Cemco_drawings.htm
  0
TEXT
  5
11428
100
AcDbEntity
  8
LINK
 62
     1
100
AcDbText
 10
-16.66263
 20
11.008004
 30
0.0
 40
1.5
  1
home
  7
BLOCK
 72
     1
 11
-14.04
 21
11.008004
 31
0.0
100
AcDbText
1001
PE_URL
1000
Cemco_drawings.htm
  0
TEXT
  5
11429
100
AcDbEntity
  8
LINK
 62
     1
100
AcDbText
 10
-26.371285
 20
17.008004
 30
0.0
 40
1.5
  1
Assembly drawing 10
  7
BLOCK
 72
     1
 11
-14.04
 21
17.008004
 31
0.0
100
AcDbText
1001
PE_URL
1000
Cemco_drawings.htm
  0
TEXT
  5
1142A
100
AcDbEntity
  8
LINK
 62
     1
100
AcDbText
 10
-25.718985
 20
14.008004
 30
0.0
 40
1.5
  1
Cemco drawing list
  7
BLOCK
 72
     1
 11
-14.04
 21
14.008004
 31
0.0
100
AcDbText
1001
PE_URL
1000
Cemco_drawings.htm
  0
TEXT
  5
11439
100
AcDbEntity
  8
LINK
 62
     1
100
AcDbText
 10
-25.727412
 20
20.008004
 30
0.0
 40
1.5
  1
Assembly drawing 9
  7
BLOCK
 72
     1
 11
-14.04
 21
20.008004
 31
0.0
100
AcDbText
1001
PE_URL
1000
6020-009.dwf
  0
MTEXT
  5
1143E
100
AcDbEntity
  8
LINK
100
AcDbMText
 10
-8.502297
 20
2.198246
 30
0.0
 40
1.5
 41
0.0
 71
     7
 72
     1
  1
{Back}\P{Button}
  7
ARCH
1001
PE_URL
1000
6020-009.dwf
  0
LEADER
  5
1143F
100
AcDbEntity
  8
LINK
100
AcDbLeader
  3
LEADER
 72
     1
 73
     0
 74
     0
 40
0.125
 41
0.556034
 76
     7
 10
-0.333038
 20
6.676278
 30
0.0
 10
-4.766355
 20
9.43932
 30
0.0
 10
-9.996674
 20
9.820429
 30
0.0
 10
-14.131116
 20
8.438908
 30
0.0
 10
-13.284303
 20
3.389212
 30
0.0
 10
-11.341613
 20
3.0
 30
0.0
 10
-8.900798
 20
3.0
 30
0.0
 77
   256
1001
PE_URL
1000
6020-009.dwf
  0
INSERT
  5
11440
100
AcDbEntity
  8
D-TEXT
100
AcDbBlockReference
 66
     1
  2
DETAIL_TITLE
 10
0.0
 20
0.0
 30
0.0
 41
12.0
 42
12.0
 43
12.0
1001
PE_URL
1000
6020-009.dwf
  0
ATTRIB
  5
11441
100
AcDbEntity
  8
D-TEXT
100
AcDbText
 10
13.962231
 20
7.801712
 30
0.0
 40
3.0
  1
JOIST,STUD,RAFTER WEB PENETRATIONS
  7
BLOCK
100
AcDbAttribute
  2
DETAIL_DISCRIPTION
 70
     0
  0
ATTRIB
  5
11442
100
AcDbEntity
  8
D-TEXT
100
AcDbText
 10
1.356642
 20
4.731115
 30
0.0
 40
3.0
  1
D-21
  7
BLD
 72
     1
 11
6.231115
 21
6.231115
 31
0.0
100
AcDbAttribute
  2
DETAIL_NO
 70
     0
 74
     2
  0
ATTRIB
  5
11443
100
AcDbEntity
  8
D-TEXT
100
AcDbText
 10
13.962231
 20
2.064588
 30
0.0
 40
2.25
  1
N. T. Scale 1" = 1'0"
  7
BLOCK
100
AcDbAttribute
  2
SCALE
 70
     0
  0
SEQEND
  5
11444
100
AcDbEntity
  8
D-TEXT
  0
TEXT
  5
1145D
100
AcDbEntity
  8
LINK
100
AcDbText
 10
-25.125
 20
1.0
 30
0.0
 40
2.0
  1
12x
  7
BLOCK
 11
-25.125
 21
1.0
 31
0.0
100
AcDbText
 73
     1
  0
MTEXT
  5
1148F
100
AcDbEntity
  8
D-TEXT
100
AcDbMText
 10
36.125
 20
63.125
 30
0.0
 40
1.5
 41
34.625
 71
     6
 72
     1
  1
{ALL OPENINGS}\P{CENTERED IN WEB}
  7
ARCH
  0
MTEXT
  5
1152C
100
AcDbEntity
  8
D-TEXT
100
AcDbMText
 10
69.5
 20
59.875
 30
0.0
 40
1.5
 41
24.25
 71
     1
 72
     1
  1
{REINFORCEMENT REQUIRED}\P{FOR PENETRATIONS GREATER}\P{THAN PUNCH- OUT DEPTH}
  7
ARCH
  0
MTEXT
  5
11551
100
AcDbEntity
  8
D-TEXT
100
AcDbMText
 10
36.75
 20
48.25
 30
0.0
 40
1.5
 41
35.125
 71
     3
 72
     1
  1
{EDGE OF PENETRATION}\P{SHALL NOT BE LOCATED}\P{ANY WIDER THAN EITHER EDGE OF THE PUNCH}
  7
ARCH
  0
DIMENSION
  5
115F0
100
AcDbEntity
  8
D-TEXT
100
AcDbDimension
  2
*D5
 10
65.829227
 20
66.500098
 30
0.0
 11
75.502442
 21
61.705706
 31
0.0
 12
0.0
 22
-2.75
 32
0.0
 70
   161
  1
{1-5/8"}
  3
LEADER
100
AcDbAlignedDimension
 13
61.881831
 23
62.158673
 33
0.0
 14
60.988787
 24
63.705469
 34
0.0
  0
MTEXT
  5
11666
100
AcDbEntity
  8
D-TEXT
100
AcDbMText
 10
94.0
 20
35.75
 30
0.0
 40
1.5
 41
47.625
 71
     3
 72
     1
  1
{NO REINFORCEMENT REQUIRED}\P{FOR PENETRATIONS WITH A DIAMETER}\P{LESS THAN OR EQUAL TO PUNCH}\P{DEPTH. EXCEPT AS NOTED BELOW}
  7
ARCH
  0
POLYLINE
  5
11667
100
AcDbEntity
  8
LAYOUT
100
AcDb2dPolyline
 66
     1
 10
0.0
 20
0.0
 30
0.0
 70
     1
  0
VERTEX
  5
11668
100
AcDbEntity
  8
LAYOUT
100
AcDbVertex
100
AcDb2dVertex
 10
0.0
 20
0.0
 30
0.0
  0
VERTEX
  5
11669
100
AcDbEntity
  8
LAYOUT
100
AcDbVertex
100
AcDb2dVertex
 10
123.24
 20
0.0
 30
0.0
  0
VERTEX
  5
1166A
100
AcDbEntity
  8
LAYOUT
100
AcDbVertex
100
AcDb2dVertex
 10
123.24
 20
95.16
 30
0.0
  0
VERTEX
  5
1166B
100
AcDbEntity
  8
LAYOUT
100
AcDbVertex
100
AcDb2dVertex
 10
95.16
 20
95.16
 30
0.0
  0
VERTEX
  5
1166C
100
AcDbEntity
  8
LAYOUT
100
AcDbVertex
100
AcDb2dVertex
 10
95.16
 20
123.24
 30
0.0
  0
VERTEX
  5
1166D
100
AcDbEntity
  8
LAYOUT
100
AcDbVertex
100
AcDb2dVertex
 10
0.0
 20
123.24
 30
0.0
  0
SEQEND
  5
1166E
100
AcDbEntity
  8
LAYOUT
  0
POLYLINE
  5
116DC
100
AcDbEntity
  8
_KTI_CONTROL
 60
     1
100
AcDb3dPolyline
 66
     1
 10
0.0
 20
0.0
 30
0.0
 70
     8
1001
_KTI_ARCHT
1070
 12000
1000
ENVIRONMENT
1070
 10003
1000
6020-021
1070
 20000
1000
standard
1070
 20001
1000
f:\archt
1070
 20003
1000
j:\archt
1070
 20002
1000
f:\archt\tmp
1070
 20004
1002
{
1000
f:\archt\blks
1000
f:\archt\blks3d
1000
h:\archt\blks
1000
h:\archt\blks3d
1000
j:\archt\blks
1000
j:\archt\blks3d
1002
}
1070
 20005
1002
{
1000
f:\archt\slds
1002
}
1070
 20006
1002
{
1000
f:\archt\dclswin
1002
}
1070
 20007
1002
{
1000
f:\archt\docs
1002
}
1070
 20008
1002
{
1000
f:\archt\help
1002
}
  0
VERTEX
  5
116DD
100
AcDbEntity
  8
_KTI_CONTROL
100
AcDbVertex
100
AcDb3dPolylineVertex
 10
0.0
 20
0.0
 30
0.0
 70
    32
  0
VERTEX
  5
116DE
100
AcDbEntity
  8
_KTI_CONTROL
100
AcDbVertex
100
AcDb3dPolylineVertex
 10
0.0
 20
0.0
 30
0.0
 70
    32
  0
SEQEND
  5
116DF
100
AcDbEntity
  8
_KTI_CONTROL
  0
POLYLINE
  5
116E0
100
AcDbEntity
  8
_KTI_CONTROL
 60
     1
100
AcDb3dPolyline
 66
     1
 10
0.0
 20
0.0
 30
0.0
 70
     8
1001
_KTI_ARCHT
1070
 12000
1000
ARCHTVARS
1070
 10003
1000
6020-021
1070
 12030
1000
in
1070
 12020
1070
     1
1070
 12021
1070
     0
1070
 12070
1070
     0
1070
 12071
1070
     1
1070
 12907
1070
     0
1070
 12072
1070
     2
1070
 12073
1070
    48
1070
 12074
1070
     0
1070
 12080
1070
     1
1070
 12092
1070
     1
1070
 12096
1070
     0
1070
 12095
1070
     0
1070
 12081
1070
     1
1070
 12082
1070
     1
1070
 12083
1070
     1
1070
 12084
1070
     1
1070
 12085
1070
     0
1070
 12086
1070
     1
1070
 12087
1070
     0
1070
 12088
1070
     0
1070
 12097
1070
     1
1070
 12089
1070
     4
1070
 12090
1070
     6
1070
 12091
1070
     1
1070
 12045
1000
standard
1070
 12046
1000

1070
 12047
1000
standard
1070
 12048
1000

1070
 12049
1000

1070
 12093
1070
     1
1070
 12094
1070
     1
1070
 12908
1070
     0
1070
 12909
1070
     0
1070
 12911
1070
     0
1070
 12910
1070
     0
1070
 12912
1070
     0
1070
 12098
1070
   640
1070
 12060
1002
{
1000

1000

1000

1000

1002
}
1070
 12904
1002
{
1070
     0
1070
     0
1070
     0
1070
     0
1070
     0
1002
}
1070
 12905
1002
{
1040
0.0
1040
0.0
1040
0.0
1040
0.0
1040
0.0
1002
}
1070
 12906
1002
{
1000

1000

1000

1000

1000

1002
}
1070
 12040
1002
{
1002
}
  0
VERTEX
  5
116E1
100
AcDbEntity
  8
_KTI_CONTROL
100
AcDbVertex
100
AcDb3dPolylineVertex
 10
0.0
 20
0.0
 30
0.0
 70
    32
  0
VERTEX
  5
116E2
100
AcDbEntity
  8
_KTI_CONTROL
100
AcDbVertex
100
AcDb3dPolylineVertex
 10
0.0
 20
0.0
 30
0.0
 70
    32
  0
SEQEND
  5
116E3
100
AcDbEntity
  8
_KTI_CONTROL
  0
ENDSEC
  0
SECTION
  2
OBJECTS
  0
DICTIONARY
  5
C
100
AcDbDictionary
  3
ACAD_GROUP
350
D
  3
ACAD_MLINESTYLE
350
E
  0
DICTIONARY
  5
D
102
{ACAD_REACTORS
330
C
102
}
100
AcDbDictionary
  3
*A1
350
13B4
  3
*A2
350
13B5
  0
DICTIONARY
  5
E
102
{ACAD_REACTORS
330
C
102
}
100
AcDbDictionary
  3
STANDARD
350
13
  0
GROUP
  5
13B4
102
{ACAD_REACTORS
330
D
102
}
100
AcDbGroup
300

 70
     3
 71
     1
  0
GROUP
  5
13B5
102
{ACAD_REACTORS
330
D
102
}
100
AcDbGroup
300
stud_3p625x1p625x96_woleEnchala
 70
     3
 71
     1
  0
MLINESTYLE
  5
13
102
{ACAD_REACTORS
330
E
102
}
100
AcDbMlineStyle
  2
STANDARD
 70
     0
  3

 62
     0
 51
90.0
 52
90.0
 71
     2
 49
0.5
 62
   256
  6
BYLAYER
 49
-0.5
 62
   256
  6
BYLAYER
  0
ENDSEC
  0
EOF
